<?xml version="1.0" standalone="no"?>
<!DOCTYPE svg PUBLIC "-//W3C//DTD SVG 1.1//EN" "http://www.w3.org/Graphics/SVG/1.1/DTD/svg11.dtd" >
<svg xmlns="http://www.w3.org/2000/svg">
<metadata>Generated by IcoMoon</metadata>
<defs>
<font id="icomoon" horiz-adv-x="1024">
<font-face units-per-em="1024" ascent="960" descent="-64" />
<missing-glyph horiz-adv-x="1024" />
<glyph unicode="&#x20;" horiz-adv-x="512" d="" />
<glyph unicode="&#xe900;" glyph-name="arrow-down" d="M822.639 361.361l-288-288c-2.97-2.978-6.502-5.338-10.385-6.946-3.887-1.613-8.047-2.441-12.254-2.441s-8.371 0.828-12.254 2.441c-3.887 1.609-7.415 3.968-10.385 6.946l-288.002 288c-6.004 6.003-9.378 14.148-9.378 22.639s3.373 16.636 9.378 22.639c6.005 6.007 14.149 9.378 22.64 9.378s16.635-3.371 22.64-9.378l233.361-233.399v626.761c0 8.487 3.371 16.626 9.374 22.627 5.999 6.001 14.14 9.373 22.626 9.373s16.627-3.372 22.626-9.373c6.003-6.001 9.374-14.141 9.374-22.627v-626.761l233.361 233.399c6.003 6.007 14.148 9.378 22.639 9.378s16.636-3.371 22.639-9.378c6.003-6.003 9.378-14.148 9.378-22.639s-3.375-16.636-9.378-22.639z" />
<glyph unicode="&#xe901;" glyph-name="arrow-left" d="M896 448c0-8.486-3.371-16.627-9.374-22.626-5.999-6.003-14.14-9.374-22.626-9.374h-626.76l233.399-233.361c2.974-2.97 5.333-6.502 6.942-10.385 1.609-3.887 2.436-8.047 2.436-12.254 0-4.203-0.828-8.367-2.436-12.254-1.609-3.883-3.968-7.411-6.942-10.385-2.97-2.974-6.502-5.333-10.385-6.942-3.887-1.609-8.047-2.436-12.254-2.436-4.203 0-8.367 0.828-12.254 2.436-3.883 1.609-7.411 3.968-10.385 6.942l-288 288c-2.976 2.97-5.336 6.502-6.946 10.385-1.61 3.887-2.439 8.047-2.439 12.254s0.829 8.371 2.439 12.254c1.61 3.887 3.971 7.415 6.946 10.385l288 288.002c6.004 6.004 14.149 9.378 22.639 9.378s16.636-3.373 22.639-9.378c6.007-6.005 9.378-14.149 9.378-22.64s-3.371-16.635-9.378-22.64l-233.399-233.361h626.76c8.486 0 16.627-3.371 22.626-9.374 6.003-5.999 9.374-14.14 9.374-22.626z" />
<glyph unicode="&#xe902;" glyph-name="arrow-right" d="M886.639 425.361l-288-288c-6.003-6.003-14.148-9.378-22.639-9.378s-16.636 3.375-22.639 9.378c-6.007 6.003-9.378 14.148-9.378 22.639s3.371 16.636 9.378 22.639l233.399 233.361h-626.761c-8.487 0-16.626 3.371-22.627 9.374-6.001 5.999-9.373 14.14-9.373 22.626s3.372 16.627 9.373 22.626c6.001 6.003 14.141 9.374 22.627 9.374h626.761l-233.399 233.361c-6.007 6.004-9.378 14.148-9.378 22.64s3.371 16.635 9.378 22.64c6.003 6.004 14.148 9.378 22.639 9.378s16.636-3.373 22.639-9.378l288-288.002c2.978-2.97 5.338-6.498 6.946-10.385 1.613-3.883 2.441-8.047 2.441-12.254s-0.828-8.367-2.441-12.254c-1.609-3.883-3.968-7.415-6.946-10.385z" />
<glyph unicode="&#xe904;" glyph-name="arrow-up" d="M822.639 489.361c-2.97-2.974-6.502-5.338-10.385-6.946-3.887-1.609-8.047-2.441-12.254-2.441s-8.371 0.832-12.254 2.441c-3.887 1.609-7.415 3.972-10.385 6.946l-233.361 233.4v-626.761c0-8.486-3.371-16.627-9.374-22.626-5.999-6.003-14.14-9.374-22.626-9.374s-16.627 3.371-22.626 9.374c-6.003 5.999-9.374 14.14-9.374 22.626v626.761l-233.361-233.4c-6.004-6.003-14.148-9.378-22.64-9.378s-16.635 3.375-22.64 9.378c-6.004 6.003-9.378 14.148-9.378 22.639s3.373 16.636 9.378 22.641l288.002 288c2.97 2.975 6.498 5.335 10.385 6.946 3.883 1.61 8.047 2.439 12.254 2.439s8.367-0.829 12.254-2.439c3.883-1.61 7.415-3.971 10.385-6.946l288-288c2.974-2.972 5.338-6.5 6.946-10.387 1.613-3.883 2.441-8.047 2.441-12.254 0-4.203-0.828-8.367-2.441-12.254-1.609-3.883-3.972-7.415-6.946-10.385z" />
<glyph unicode="&#xe905;" glyph-name="arrow-up-right" d="M800 704v-416c0-8.486-3.371-16.627-9.374-22.626-5.999-6.003-14.14-9.374-22.626-9.374s-16.627 3.371-22.626 9.374c-6.003 5.999-9.374 14.14-9.374 22.626v338.76l-457.36-457.399c-6.005-6.007-14.149-9.378-22.64-9.378s-16.635 3.371-22.64 9.378c-6.004 6.003-9.378 14.148-9.378 22.639s3.373 16.636 9.378 22.639l457.401 457.361h-338.761c-8.487 0-16.626 3.372-22.627 9.373s-9.373 14.141-9.373 22.627c0 8.487 3.372 16.626 9.373 22.627s14.141 9.373 22.627 9.373h416c8.486 0 16.627-3.372 22.626-9.373 6.003-6.001 9.374-14.141 9.374-22.627z" />
<glyph unicode="&#xe906;" glyph-name="arrow-up-right-bold" d="M512 864c-82.278 0-162.706-24.398-231.117-70.109s-121.731-110.681-153.216-186.695c-31.486-76.013-39.724-159.657-23.673-240.352s55.671-154.82 113.85-213.001c58.179-58.18 132.303-97.801 213-113.852 80.695-16.051 164.339-7.812 240.354 23.676 76.011 31.484 140.983 84.804 186.692 153.216 45.713 68.412 70.11 148.838 70.11 231.117-0.115 110.294-43.981 216.038-121.971 294.028s-183.735 121.856-294.029 121.972zM672 384c0-8.486-3.371-16.627-9.374-22.626-5.999-6.003-14.14-9.374-22.626-9.374s-16.627 3.371-22.626 9.374c-6.003 5.999-9.374 14.14-9.374 22.626v114.761l-201.36-201.399c-2.973-2.974-6.503-5.333-10.387-6.942s-8.048-2.436-12.253-2.436c-4.204 0-8.368 0.828-12.253 2.436s-7.414 3.968-10.387 6.942c-2.973 2.974-5.332 6.502-6.941 10.385-1.609 3.887-2.437 8.051-2.437 12.254s0.828 8.367 2.437 12.254c1.609 3.883 3.968 7.411 6.941 10.385l201.4 201.361h-114.761c-8.486 0-16.627 3.372-22.627 9.373s-9.373 14.141-9.373 22.627c0 8.487 3.372 16.626 9.373 22.627s14.141 9.373 22.627 9.373h192c8.486 0 16.627-3.372 22.626-9.373 6.003-6.001 9.374-14.141 9.374-22.627v-192z" />
<glyph unicode="&#xe907;" glyph-name="bank" d="M938.667 87.838h-853.333v-66.496h853.333v66.496zM884.079 686.23l-321.886 175.537c-31.433 17.199-68.954 17.199-100.369 0l-321.904-175.537c-33.681-18.372-54.586-53.624-54.586-91.993v-72.262h107.295v-291.119h-71.536v-66.496h781.815v66.496h-71.535v291.132h107.294v72.265c0 38.37-20.907 73.588-54.588 91.977zM371.46 230.874h-112.325v291.115h112.325v-291.115zM586.052 230.874h-148.087v291.115h148.087v-291.115zM764.881 230.874h-112.324v291.115h112.324v-291.115zM872.179 588.471h-720.34v5.766c0 14.013 7.645 26.887 19.951 33.609l321.868 175.555c11.486 6.269 25.199 6.269 36.668 0l321.886-175.555c12.305-6.722 19.951-19.596 19.951-33.609l0.017-5.766z" />
<glyph unicode="&#xe908;" glyph-name="caret-down" d="M854.639 553.36l-320-319.999c-2.97-2.974-6.502-5.338-10.385-6.946-3.887-1.613-8.047-2.441-12.254-2.441s-8.371 0.828-12.254 2.441c-3.887 1.609-7.415 3.972-10.385 6.946l-320.002 319.999c-6.004 6.005-9.378 14.149-9.378 22.64s3.373 16.636 9.378 22.64c6.005 6.004 14.149 9.378 22.64 9.378s16.635-3.373 22.64-9.378l297.361-297.401 297.361 297.401c2.97 2.973 6.502 5.331 10.385 6.941 3.887 1.609 8.047 2.437 12.254 2.437 4.203 0 8.367-0.828 12.254-2.437 3.883-1.609 7.411-3.968 10.385-6.941s5.333-6.503 6.942-10.388c1.609-3.884 2.436-8.048 2.436-12.253s-0.828-8.368-2.436-12.253c-1.609-3.885-3.968-7.414-6.942-10.388z" />
<glyph unicode="&#xe909;" glyph-name="caret-left" d="M662.639 150.639c2.974-2.97 5.333-6.502 6.942-10.385 1.609-3.887 2.436-8.047 2.436-12.254 0-4.203-0.828-8.367-2.436-12.254-1.609-3.883-3.968-7.411-6.942-10.385s-6.502-5.333-10.385-6.942c-3.887-1.609-8.051-2.436-12.254-2.436-4.207 0-8.367 0.828-12.254 2.436-3.883 1.609-7.411 3.968-10.385 6.942l-320.001 320c-2.975 2.97-5.335 6.502-6.946 10.385-1.611 3.887-2.44 8.047-2.44 12.254s0.829 8.371 2.44 12.254c1.61 3.887 3.971 7.415 6.946 10.385l320.001 320.002c6.003 6.004 14.148 9.378 22.639 9.378s16.636-3.373 22.639-9.378c6.007-6.005 9.378-14.149 9.378-22.64s-3.371-16.635-9.378-22.64l-297.399-297.361 297.399-297.361z" />
<glyph unicode="&#xe90a;" glyph-name="clock" d="M512 864c-82.277 0-162.706-24.398-231.117-70.109s-121.731-110.681-153.217-186.695c-31.487-76.014-39.725-159.658-23.673-240.354s55.671-154.823 113.85-213.001c58.179-58.178 132.303-97.799 212.999-113.847 80.696-16.055 164.34-7.812 240.353 23.669 76.017 31.488 140.982 84.809 186.696 153.22 45.707 68.411 70.107 148.84 70.107 231.117-0.117 110.294-43.981 216.038-121.973 294.028-77.989 77.99-183.733 121.856-294.027 121.972zM736 416h-224c-8.487 0-16.626 3.371-22.627 9.373s-9.373 14.141-9.373 22.627v224c0 8.487 3.372 16.626 9.373 22.627s14.141 9.373 22.627 9.373c8.487 0 16.626-3.371 22.627-9.373s9.373-14.141 9.373-22.627v-192h192c8.485 0 16.625-3.371 22.63-9.373 5.998-6.001 9.37-14.141 9.37-22.627s-3.372-16.626-9.37-22.627c-6.005-6.001-14.146-9.373-22.63-9.373z" />
<glyph unicode="&#xe90b;" glyph-name="caret-up" d="M854.639 297.361c-2.97-2.974-6.498-5.338-10.385-6.946-3.883-1.609-8.047-2.441-12.254-2.441s-8.371 0.832-12.254 2.441c-3.887 1.609-7.415 3.972-10.385 6.946l-297.361 297.4-297.36-297.4c-6.004-6.003-14.148-9.378-22.64-9.378s-16.636 3.375-22.64 9.378c-6.004 6.003-9.378 14.148-9.378 22.639s3.373 16.636 9.378 22.639l320.001 320.002c2.97 2.975 6.498 5.335 10.385 6.946 3.883 1.61 8.047 2.439 12.254 2.439s8.371-0.829 12.254-2.439c3.887-1.61 7.415-3.971 10.385-6.946l320-320.002c2.978-2.97 5.338-6.498 6.946-10.385 1.613-3.883 2.441-8.047 2.441-12.254 0-4.203-0.828-8.367-2.441-12.254-1.609-3.883-3.968-7.411-6.946-10.385z" />
<glyph unicode="&#xe90c;" glyph-name="casino" d="M512 864c-82.278 0-162.706-24.398-231.117-70.109s-121.731-110.681-153.216-186.695c-31.486-76.013-39.724-159.657-23.673-240.352s55.672-154.82 113.85-213.001c58.179-58.18 132.303-97.801 213-113.852 80.695-16.051 164.339-7.812 240.354 23.676 76.011 31.484 140.983 84.804 186.692 153.216 45.713 68.412 70.11 148.838 70.11 231.117-0.115 110.294-43.981 216.038-121.971 294.028s-183.735 121.856-294.029 121.972zM512 256c-37.973 0-75.093 11.26-106.67 32.358-31.574 21.099-56.183 51.085-70.715 86.165-14.532 35.085-18.334 73.69-10.926 110.933s25.694 71.456 52.546 98.307c26.852 26.852 61.064 45.138 98.307 52.546s75.849 3.606 110.933-10.926c35.081-14.532 65.067-39.141 86.165-70.715 21.099-31.576 32.358-68.696 32.358-106.67-0.051-50.906-20.297-99.712-56.294-135.706-35.994-35.998-84.8-56.243-135.706-56.294zM668.838 650.12c-36.164 28.269-79.3 46.236-124.838 52v96.4c71.014-6.397 138.385-34.306 193.122-80l-68.284-68.4zM480 701.92c-45.538-5.764-88.674-23.731-124.84-52l-68.28 68.48c54.735 45.694 122.106 73.603 193.12 80v-96.48zM309.88 604.84c-28.268-36.166-46.236-79.302-52-124.84h-96.4c6.397 71.014 34.306 138.385 80 193.12l68.4-68.28zM258.080 416c5.764-45.538 23.731-88.674 52-124.838l-68.48-68.279c-45.694 54.733-73.603 122.103-80 193.118h96.48zM355.16 245.879c36.188-28.198 79.319-46.093 124.84-51.802v-96.597c-71.014 6.396-138.385 34.304-193.12 80l68.28 68.399zM544 194.078c45.521 5.709 88.653 23.603 124.838 51.802l68.284-68.279c-54.737-45.696-122.108-73.604-193.122-80v96.478zM714.121 291.162c28.198 36.186 46.093 79.317 51.802 124.838h96.597c-6.396-71.014-34.304-138.385-80-193.118l-68.399 68.279zM765.922 480c-5.709 45.521-23.603 88.652-51.802 124.84l68.279 68.28c45.696-54.735 73.604-122.106 80-193.12h-96.478z" />
<glyph unicode="&#xe90d;" glyph-name="check" d="M918.639 649.36l-512-511.999c-2.972-2.974-6.501-5.338-10.385-6.946-3.885-1.613-8.049-2.441-12.254-2.441s-8.369 0.828-12.254 2.441c-3.884 1.609-7.414 3.972-10.386 6.946l-224 224c-6.004 6.003-9.378 14.148-9.378 22.639s3.373 16.636 9.378 22.639c6.005 6.007 14.149 9.378 22.64 9.378s16.635-3.371 22.64-9.378l201.36-201.399 489.361 489.401c6.003 6.004 14.148 9.378 22.639 9.378s16.636-3.373 22.639-9.378c6.003-6.004 9.378-14.149 9.378-22.64s-3.375-16.635-9.378-22.64z" />
<glyph unicode="&#xe90e;" glyph-name="check-bold" d="M918.839 735.194c-26.402 26.438-69.278 26.421-95.714 0l-430.775-430.793-191.461 191.458c-26.438 26.441-69.292 26.441-95.729 0-26.438-26.436-26.438-69.291 0-95.727l239.316-239.317c13.21-13.21 30.533-19.831 47.857-19.831s34.663 6.605 47.873 19.831l478.635 478.651c26.436 26.419 26.436 69.292 0 95.728z" />
<glyph unicode="&#xe90f;" glyph-name="check-circle-fill" d="M512 864c-82.278 0-162.706-24.398-231.117-70.109s-121.731-110.681-153.216-186.695c-31.486-76.013-39.724-159.657-23.673-240.352s55.671-154.82 113.85-213.001c58.179-58.18 132.303-97.801 213-113.852 80.695-16.051 164.339-7.812 240.354 23.676 76.011 31.484 140.983 84.804 186.692 153.216 45.713 68.412 70.11 148.838 70.11 231.117-0.115 110.294-43.981 216.038-121.971 294.028s-183.735 121.856-294.029 121.972zM694.639 521.361l-224-224c-2.97-2.978-6.498-5.338-10.385-6.946-3.883-1.613-8.047-2.441-12.254-2.441s-8.371 0.828-12.254 2.441c-3.883 1.609-7.415 3.968-10.386 6.946l-96 96c-6.004 6.003-9.378 14.148-9.378 22.639s3.373 16.636 9.378 22.639c6.004 6.007 14.148 9.378 22.64 9.378s16.636-3.371 22.64-9.378l73.36-73.399 201.361 201.401c2.974 2.973 6.502 5.331 10.385 6.941 3.887 1.609 8.051 2.437 12.254 2.437 4.207 0 8.367-0.828 12.254-2.437 3.883-1.609 7.411-3.968 10.385-6.941s5.333-6.503 6.942-10.388c1.609-3.884 2.436-8.048 2.436-12.253s-0.828-8.368-2.436-12.254c-1.609-3.883-3.968-7.411-6.942-10.385z" />
<glyph unicode="&#xe910;" glyph-name="CalendarX" d="M866.462 748.308h-118.153v83.692h-59.081v-83.692h-147.691v83.692h-59.076v-83.692h-147.693v83.692h-59.077v-83.692h-118.154c-7.834 0-15.347-2.939-20.887-8.171s-8.652-12.327-8.652-19.726v-585.848c0-7.398 3.112-14.494 8.652-19.725s13.053-8.171 20.887-8.171h708.923c7.834 0 15.347 2.94 20.885 8.171 5.542 5.231 8.653 12.326 8.653 19.725v585.848c0 7.399-3.11 14.494-8.653 19.726-5.538 5.232-13.052 8.171-20.885 8.171zM836.924 162.462h-649.847v530.051h88.615v-83.692h59.077v83.692h147.693v-83.692h59.076v83.692h147.691v-83.692h59.081v83.692h88.614v-530.051zM615.386 536.678l-103.386-97.642-103.385 97.642-41.767-39.449 103.386-97.638-103.386-97.643 41.767-39.445 103.385 97.638 103.386-97.638 41.766 39.445-103.386 97.643 103.386 97.638-41.766 39.449z" />
<glyph unicode="&#xe911;" glyph-name="ClockCountdown" d="M533.333 21.333c-96.866 0-187.946 39.014-256.442 109.837-68.496 70.827-106.225 165.001-106.225 265.161 0 100.164 37.729 194.337 106.225 265.175s159.575 109.837 256.442 109.837c96.866 0 187.947-39.012 256.439-109.837 68.497-70.825 106.227-164.998 106.227-265.162 0-100.16-37.73-194.338-106.227-265.161-68.493-70.827-159.573-109.85-256.439-109.85zM533.333 721.33c-83.959 0-162.886-33.8-222.254-95.187s-92.057-142.998-92.057-229.812c0-86.81 32.689-168.422 92.057-229.811 59.369-61.385 138.295-95.185 222.254-95.185 83.955 0 162.884 33.801 222.255 95.185 59.366 61.389 92.058 143.002 92.058 229.811 0 86.814-32.691 168.425-92.058 229.812-59.371 61.387-138.3 95.187-222.255 95.187zM364.089 421.333h-96.711v-50.001h96.711v50.001zM396.563 290.27l-68.385-70.711 34.193-35.358 68.384 70.711-34.191 35.358zM557.513 221.333h-48.358v-100.002h48.358v100.002zM670.106 290.27l-34.189-35.358 68.382-70.707 34.193 35.354-68.386 70.711zM362.368 608.468l-34.192-35.355 68.385-70.708 34.193 35.353-68.386 70.71zM605.867 721.33h-145.067v153.337h145.067v-153.337zM509.154 771.33h48.358v53.337h-48.358v-53.337zM654.221 874.667h-241.777v-50h241.777v50zM799.287 371.332h-290.133v299.998h24.179c71.036 0 137.826-28.6 188.053-80.55 50.231-51.937 77.901-120.999 77.901-194.45v-24.998zM557.513 421.333h192.090c-11.183 104.124-91.379 187.047-192.090 198.622v-198.622z" />
<glyph unicode="&#xe912;" glyph-name="coins" d="M332.521 516.275c-136.132 0-247.187-111.104-247.187-247.292 0-136.192 111.055-247.292 247.187-247.292 136.13 0 247.187 111.1 247.187 247.292 0 136.188-111.057 247.292-247.187 247.292zM332.521 86.204c-100.666 0-182.704 82.069-182.704 182.78 0 100.706 82.038 182.78 182.704 182.78s182.705-82.074 182.705-182.78c0-100.71-82.039-182.78-182.705-182.78zM672.849 874.667c-151.177 0-265.098-60.21-265.098-139.773v-148.733c76.665-18.278 144.372-63.792 190.226-128.304 27.584-3.942 51.23-6.093 74.871-6.093 76.309 0 145.805 15.411 195.243 43.725l5.376 2.867v-50.176c0-30.822-78.097-75.264-200.619-75.264-10.031 0-20.062 0.358-31.881 1.434 7.164-21.504 12.535-43.004 15.044-64.866 1.792 0 3.584 0 5.376-0.358 3.938 0 7.881-0.717 11.819-0.717 76.309 0 145.805 15.411 195.243 43.721l5.376 2.867v-50.172c0-30.822-78.097-75.264-200.619-75.264-4.655 0-8.956 0-12.894 0.358-1.075 0-2.509 0-3.584 0-2.509-21.146-7.522-42.65-14.327-63.795h3.938c8.956-1.075 17.911-1.434 27.226-1.434 76.305 0 145.805 15.411 195.243 43.725l5.376 2.867v-41.216c0-35.123-76.305-84.22-200.619-84.22-21.85 0-43.703 1.792-66.991 5.734-13.252-20.429-29.018-39.424-46.571-56.627 35.465-8.96 73.438-13.619 113.562-13.619 151.181 0 265.101 63.795 265.101 148.732v564.829c0 79.563-113.92 139.773-265.101 139.773h-0.717zM873.468 591.536c0-30.822-78.097-75.261-200.619-75.261-122.517 0-200.614 44.439-200.614 75.261v50.175l5.376-2.867c49.434-27.955 118.933-43.366 195.238-43.366 76.309 0 145.805 15.411 195.243 43.366l5.376 2.867v-50.175zM672.849 659.631c-122.517 0-200.614 44.441-200.614 75.263s78.097 75.262 200.614 75.262c122.522 0 200.619-44.441 200.619-75.262s-78.097-75.263-200.619-75.263z" />
<glyph unicode="&#xe913;" glyph-name="collapse" d="M895.979 143.454h-731.582v-79.454h731.582v79.454zM895.979 832h-731.582v-79.453h731.582v79.453zM896 585.997h-359.377v-79.454h359.377v79.454zM896 389.457h-359.377v-79.454h359.377v79.454zM383.366 286.929v326.507l-255.366-161.191 255.366-165.316z" />
<glyph unicode="&#xe914;" glyph-name="default" d="M512 96c-194.404 0-352 157.598-352 352 0 194.404 157.596 352 352 352 194.402 0 352-157.596 352-352 0-194.402-157.598-352-352-352zM512 32c229.751 0 416 186.249 416 416s-186.249 416-416 416c-229.751 0-416-186.249-416-416s186.249-416 416-416z" />
<glyph unicode="&#xe915;" glyph-name="copy" d="M871.296 537.484v-516.151h-540.208v75.328h468.174v516.151l72.034-75.328zM259.054 874.667c-58.646 0-106.353-49.889-106.353-111.217v-589.715h572.842v510.415l-182.17 190.517h-284.319zM656.9 245.534h-435.543v517.916c0 21.731 16.915 39.42 37.696 39.42h253.782v-150.638h144.047l0.017-406.698z" />
<glyph unicode="&#xe916;" glyph-name="currency-circle-dollar" d="M512 874.667c-235.271 0-426.667-191.395-426.667-426.667 0-235.273 191.395-426.667 426.667-426.667 235.273 0 426.667 191.394 426.667 426.667 0 235.271-191.394 426.667-426.667 426.667zM512 92.446c-196.053 0-355.555 159.501-355.555 355.554s159.502 355.555 355.555 355.555c196.053 0 355.554-159.502 355.554-355.555s-159.501-355.554-355.554-355.554zM440.887 519.113c0-13.44 9.638-24.819 22.899-27.025l108.126-18.027c47.714-7.927 82.308-48.815 82.308-97.173 0-58.807-47.855-106.667-106.667-106.667v-71.108h-71.108v71.108c-58.81 0-106.668 47.859-106.668 106.667h71.11c0-19.627 15.932-35.554 35.558-35.554h71.108c19.627 0 35.558 15.927 35.558 35.554 0 13.44-9.638 24.819-22.899 27.025l-108.126 18.027c-47.714 7.927-82.31 48.815-82.31 97.173 0 58.807 47.857 106.665 106.668 106.665v71.111h71.108v-71.111c58.812 0 106.667-47.858 106.667-106.665h-71.108c0 19.59-15.932 35.554-35.558 35.554h-71.108c-19.627 0-35.558-15.965-35.558-35.554z" />
<glyph unicode="&#xe917;" glyph-name="event" d="M828.587 83.652v75.981c0 17.929-14.507 32.013-32.853 32.013h-100.267v42.684c0 17.929-14.507 32.013-32.853 32.013h-69.12l39.68 107.994 174.080-15.364c12.8-0.858 25.173 5.547 32 17.071 5.973 10.671 5.547 23.479-1.707 32.013l-102.827 163.911 71.68 182.691c4.693 11.098 2.56 23.050-5.547 32.014-7.68 9.391-20.48 12.806-34.133 10.244l-188.16-50.795-152.747 121.652c-9.387 7.256-21.333 8.964-33.28 4.268-11.093-4.695-19.2-15.793-20.053-26.892l-11.947-185.252-10.667-6.403c-103.68-59.332-157.867-92.199-163.84-99.456-10.24-7.683-14.933-19.208-13.227-30.732 2.133-11.951 10.24-21.769 20.48-24.333l187.307-71.283 54.187-161.348h-73.387c-18.347 0-32.853-14.511-32.853-32.013v-42.684h-100.267c-18.347 0-32.853-14.515-32.853-32.013v-75.554c-14.507-3.413-24.747-16.218-24.747-30.733 0-17.929 14.507-32.013 32.853-32.013h616.96c18.347 0 32.853 14.084 32.853 32.013 0 14.942-10.667 27.746-24.747 30.733v-0.427zM418.987 481.476l-141.227 54.208 132.693 78.54c8.96 5.122 14.933 14.94 15.36 25.184l8.96 140.006 116.907-92.626c8.533-6.83 19.2-8.964 29.44-5.976l141.653 37.99-54.613-138.726c-3.84-8.964-2.987-19.208 2.56-27.745l77.653-123.788-134.4 11.955c-14.933 1.28-29.013-7.684-34.133-20.915l-56.32-152.815h-19.627l-65.28 195.072c-2.987 8.964-9.387 16.218-19.2 19.635h-0.427zM629.76 211.708v-32.013h-235.093v32.013h235.093zM768 85.359h-506.453v42.688h506.027v-42.688h0.427zM515.84 425.984l44.8 72.563h77.653l-47.36 59.334 24.32 71.284-73.387-24.33-62.72 43.965 2.133-74.698-63.147-44.394 74.24-21.769 23.467-81.954z" />
<glyph unicode="&#xe918;" glyph-name="eye" d="M932.442 476.087c-31.223 68.401-153.805 313.246-420.437 313.246-266.63 0-389.211-244.845-420.434-313.246-8.316-18.189-8.316-39.061 0-57.25 31.239-68.382 153.922-312.171 420.434-312.171 266.517 0 389.214 243.823 420.437 312.239 8.299 18.172 8.299 39.010 0 57.182zM870.481 446.801c-27.123-58.961-133.154-271.953-358.477-271.953-225.317 0-331.317 212.672-358.474 271.552l-0.318 0.704 0.318 0.704c26.872 59.042 132.136 273.344 358.474 273.344 226.342 0 331.354-214.016 358.477-272.96l0.32-0.704-0.32-0.687zM335.194 447.991c0-97.668 79.312-177.152 176.811-177.152 97.502 0 176.811 79.467 176.811 177.152-0.115 97.553-79.445 177.016-176.811 177.15-97.482 0-176.811-79.464-176.811-177.15zM620.766 447.991c0-60.083-48.794-108.971-108.762-108.971s-108.76 48.887-108.76 108.971c0 60.083 48.792 108.969 108.76 108.969s108.762-48.886 108.762-108.969z" />
<glyph unicode="&#xe919;" glyph-name="eye-slash" d="M932.425 477.248c-17.216 39.309-62.259 134.515-143.91 211.996l91.422 95.415-45.359 47.341-96.713-100.933c-59.716 42.381-134.31 72.469-225.865 72.469-266.628 0-389.207-255.022-420.43-326.288-8.316-18.944-8.316-40.687 0-59.631 17.217-39.258 62.193-133.956 143.695-211.089l-91.207-95.189 45.361-47.339 96.561 100.774c59.75-42.291 134.392-72.311 226.032-72.311 266.628 0 389.205 253.973 420.429 325.239 8.299 18.931 8.299 40.636 0 59.563l-0.017-0.017zM153.529 446.323l-0.318 0.734 0.318 0.734c26.872 61.504 132.134 284.743 358.471 284.743 69.939 0 128.367-21.496 176.538-52.946l-76.416-79.751c-28.493 20.553-62.993 32.637-100.122 32.69-97.484 0-176.81-82.772-176.81-184.526 0-38.801 11.545-74.846 31.222-104.585l-82.958-86.579c-73.655 68.245-114.531 154.684-129.941 189.487h0.017zM620.757 448c0-62.583-48.794-113.506-108.757-113.506-18.342 0-35.61 4.783-50.786 13.167l146.91 153.318c8.047-15.838 12.617-33.856 12.617-52.996l0.017 0.017zM403.239 448c0 62.583 48.793 113.506 108.761 113.506 18.338 0 35.605-4.785 50.782-13.167l-146.91-153.318c-8.048 15.838-12.616 33.856-12.616 52.996l-0.017-0.017zM870.485 446.741c-27.123-61.414-133.154-283.277-358.473-283.277-70.020 0-128.518 21.427-176.706 52.774l76.499 79.838c28.497-20.535 63.031-32.585 100.207-32.585 97.485 0 176.811 82.773 176.811 184.525-0.051 38.75-11.631 74.756-31.322 104.496l82.773 86.387c73.839-68.68 114.782-155.781 130.21-190.691l0.316-0.734-0.316-0.734z" />
<glyph unicode="&#xe91a;" glyph-name="fire" d="M511.983 21.367c-188.202 0-341.316 159.356-341.316 355.23 0 119.287 51.368 193.921 128.506 269.266l83.554 81.667-27.032-115.911c-9.386-40.354-11.843-163.619 37.955-229.513 20.854-27.601 48.399-41.028 84.201-41.028 37.786 0 67.789 31.403 68.267 71.505 0.478 39.68-15.633 72.538-32.7 107.281-17.476 35.593-35.567 72.36-35.567 117.048 0 96.303 48.196 183.583 50.244 187.242l28.258 50.513 30.071-49.413c28.979-47.565 68.058-91.898 105.911-134.774 79.151-89.66 160.998-182.448 160.998-313.917 0-195.874-153.114-355.23-341.316-355.23l-0.034 0.034zM238.93 376.597c0-156.689 122.499-284.181 273.053-284.181s273.054 127.492 273.054 284.181c0 103.799-69.457 182.554-143.014 265.856-26.278 29.804-53.175 60.247-77.683 92.751-9.421-27.459-18.223-62.627-18.223-98.363 0-27.566 13.001-54.031 28.053-84.722 19.183-39.004 40.892-83.194 40.209-140.495-0.922-78.076-62.187-141.628-136.529-141.628-56.486 0-104.168 23.586-137.89 68.169-39.115 51.755-53.553 123.511-56.795 184.222-28.568-41.455-44.235-86.144-44.235-145.788z" />
<glyph unicode="&#xe91b;" glyph-name="game-center" d="M128 737.697v-255.252h349.555v349.555h-255.252c-51.995 0-94.303-42.308-94.303-94.303zM417.697 542.303h-229.841v195.395c0 18.996 15.45 34.447 34.447 34.447h195.395v-229.841zM801.698 832h-255.253v-349.555h349.555v255.252c0 51.995-42.308 94.303-94.302 94.303zM836.143 542.303h-229.841v229.841h195.396c18.995 0 34.445-15.45 34.445-34.447v-195.395zM222.303 64h255.252v349.555h-349.555v-255.253c0-51.994 42.308-94.302 94.303-94.302zM187.856 353.698h229.841v-229.841h-195.395c-18.996 0-34.447 15.45-34.447 34.445v195.396zM896 158.302v255.253h-349.555v-349.555h255.253c51.994 0 94.302 42.308 94.302 94.302zM606.302 353.698h229.841v-195.396c0-18.995-15.45-34.445-34.445-34.445h-195.396v229.841z" />
<glyph unicode="&#xe91c;" glyph-name="hand-deposit" d="M512 666.711c18.287 0 35.136 7.171 48.043 20.079l90.714 90.353-45.534 45.535-60.954-60.952v112.941h-64.538v-112.583l-60.236 60.236-45.535-45.535 89.996-89.994c12.907-12.908 30.114-20.079 48.043-20.079zM476.147 93.043c-56.293 0-102.186 44.817-103.979 100.39h64.538c1.792-20.079 18.645-35.853 39.441-35.853h71.706c21.871 0 39.441 17.566 39.441 39.437 0 15.42-11.115 28.326-26.172 30.835l-109.001 18.287c-46.251 7.531-79.953 47.33-79.953 94.298 0 57.365 46.611 103.979 103.979 103.979h3.584v78.878h-222.297v-437.423h74.577c17.927-23.305 41.95-42.308 68.841-54.857v-9.681h-315.518v64.538h107.563v437.423h-107.563v71.351c0 38.005 20.795 73.143 54.14 91.428l138.039 75.294 47.686-47.686-154.891-84.258c-12.549-6.812-20.437-20.079-20.437-34.778v-6.813h724.258v6.813c0 14.342-7.889 27.607-20.437 34.778l-154.889 84.258 47.684 47.686 138.039-75.294c33.344-18.286 54.14-53.065 54.14-91.428v-71.351h-107.563v-437.423h107.563v-64.538h-315.52v9.681c27.251 12.548 50.914 31.552 68.843 54.857h74.577v437.423h-222.298v-78.878h3.584c56.294 0 102.187-44.821 103.979-100.395h-64.538c-1.792 20.079-18.645 35.857-39.441 35.857h-71.706c-21.871 0-39.441-17.57-39.441-39.441 0-15.42 11.115-28.326 26.172-30.835l109.001-18.287c46.251-7.885 79.953-47.326 79.953-94.298 0-57.365-46.609-103.974-103.979-103.974h-71.706z" />
<glyph unicode="&#xe91d;" glyph-name="hand-withdraw" d="M512.717 874.667c-18.287 0-35.136-7.171-48.043-20.079l-90.713-90.353 45.535-45.535 60.952 60.952v-112.583h64.538v112.224l60.237-60.236 45.534 45.535-89.993 89.994c-12.911 12.908-30.118 20.079-48.047 20.079zM476.147 93.043c-56.293 0-102.186 44.817-103.979 100.39h64.538c1.792-20.079 18.645-35.853 39.441-35.853h71.706c21.871 0 39.441 17.566 39.441 39.437 0 15.42-11.115 28.326-26.172 30.835l-109.001 18.287c-46.25 7.531-79.953 47.33-79.953 94.298 0 57.365 46.611 103.979 103.979 103.979h3.584v78.878h-222.297v-437.423h74.577c17.927-23.305 41.95-42.308 68.841-54.857v-9.681h-315.518v64.538h107.563v437.423h-107.563v71.351c0 38.005 20.795 73.143 54.14 91.428l138.039 75.294 47.686-47.686-154.891-84.258c-12.549-6.812-20.437-20.079-20.437-34.778v-6.813h724.258v6.813c0 14.342-7.889 27.607-20.437 34.778l-154.889 84.258 47.684 47.686 138.039-75.294c33.344-18.286 54.14-53.065 54.14-91.428v-71.351h-107.563v-437.423h107.563v-64.538h-315.52v9.681c27.251 12.548 50.914 31.552 68.843 54.857h74.577v437.423h-222.298v-78.878h3.584c56.294 0 102.187-44.821 103.979-100.395h-64.538c-1.792 20.079-18.645 35.857-39.441 35.857h-71.706c-21.871 0-39.441-17.57-39.441-39.441 0-15.42 11.115-28.326 26.172-30.835l109.001-18.287c46.251-7.885 79.953-47.326 79.953-94.298 0-57.365-46.609-103.974-103.979-103.974h-71.706z" />
<glyph unicode="&#xe91e;" glyph-name="history" d="M226.354 170.624c3.202 0 6.283-1.289 8.542-3.597l59.361-60.361 59.36 60.361c2.272 2.308 5.341 3.597 8.542 3.597s6.283-1.289 8.542-3.597l59.36-60.361 59.362 60.361c2.27 2.308 5.338 3.597 8.542 3.597 3.2 0 6.281-1.289 8.542-3.597l59.238-60.348 59.349 60.348c4.531 4.608 12.553 4.608 17.084 0l47.279-48.077v75.917c-0.205-0.026-0.448 0-0.653-0.026-5.483-0.478-11.162-0.738-17.109-0.738-71.415 0-136.636 36.796-174.443 98.419-20.467 33.050-31.305 71.381-31.305 110.805 0 57.118 22.195 110.473 62.511 150.231 32.892 32.643 74.961 52.608 120.243 57.706 7.603 0.86 15.262 1.413 23.006 1.413 5.5 0 11.119-0.283 16.794-0.75 0.329-0.024 0.644-0.012 0.981-0.049v177.455h-518.818v-670.345l47.145 48.026c2.26 2.308 5.341 3.61 8.542 3.61zM242.206 689.709h375.727c6.669 0 12.083-5.504 12.083-12.286s-5.414-12.285-12.083-12.285h-375.727c-6.669 0-12.082 5.504-12.082 12.285s5.413 12.286 12.082 12.286zM242.206 589.531h235.814c6.669 0 12.079-5.504 12.079-12.286s-5.41-12.286-12.079-12.286h-235.814c-6.669 0-12.082 5.504-12.082 12.286s5.413 12.286 12.082 12.286zM242.206 489.353h175.388c6.669 0 12.080-5.504 12.080-12.284 0-6.784-5.411-12.288-12.080-12.288h-175.388c-6.669 0-12.082 5.504-12.082 12.288 0 6.78 5.413 12.284 12.082 12.284zM242.206 389.175h169.153c6.67 0 12.083-5.504 12.083-12.284 0-6.784-5.413-12.288-12.083-12.288h-169.153c-6.669 0-12.082 5.504-12.082 12.288 0 6.78 5.413 12.284 12.082 12.284zM768.576 559.64c-21.376 13.613-44.535 22.446-68.834 26.255-9.545 1.45-18.97 2.187-28.019 2.187-47.603 0-92.489-18.527-126.391-52.165-31.151-30.726-50.048-70.619-54.289-113.888-0.602-6.182-0.905-12.433-0.905-18.735 0-34.795 9.557-68.591 27.618-97.758 33.395-54.438 90.944-86.899 153.98-86.899 9.98 0 19.068 0.751 27.789 2.287 87.791 13.709 153.809 92.105 153.809 182.37 0 63.834-31.693 122.291-84.757 156.346zM738.479 335.475c-2.355-2.394-5.449-3.601-8.542-3.601s-6.187 1.207-8.542 3.601l-58.253 59.23c-2.27 2.308-3.537 5.431-3.537 8.687v120.226c0 6.784 5.41 12.286 12.083 12.286 6.669 0 12.079-5.502 12.079-12.286v-115.14l54.711-55.629c4.723-4.804 4.723-12.57 0-17.374z" />
<glyph unicode="&#xe91f;" glyph-name="hourglass" d="M659.61 547.702c53.291 43.003 108.39 87.47 108.39 169.494v114.804h-512v-114.804c0-82.024 55.101-126.49 108.389-169.494 25.734-20.769 52.347-42.243 72.706-68.001 1.792-2.308 5.722-13.5 5.722-31.701s-3.93-29.393-5.717-31.701c-20.364-25.758-46.976-47.232-72.71-68.002-53.288-43.004-108.389-87.467-108.389-169.493v-114.803h512v114.803c0 82.027-55.1 126.49-108.39 169.493-25.732 20.77-52.348 42.244-72.704 68.002-1.792 2.308-5.722 13.5-5.722 31.701s3.93 29.393 5.717 31.701c20.361 25.758 46.976 47.232 72.708 68.001zM549.099 387.025c23.671-29.943 52.399-53.124 80.179-75.546 48.683-39.283 90.722-73.212 90.722-132.672v-67.302h-416v67.298c0 59.465 42.042 93.393 90.722 132.676 27.781 22.421 56.508 45.602 80.18 75.546 21.171 26.782 21.171 95.164 0 121.95-23.671 29.942-52.399 53.125-80.18 75.544-48.68 39.285-90.722 73.213-90.722 132.677v67.299h416v-67.299c0-59.464-42.039-93.392-90.722-132.676-27.78-22.419-56.508-45.602-80.179-75.545-21.175-26.782-21.175-95.168 0-121.95z" />
<glyph unicode="&#xe920;" glyph-name="info" d="M874.33 222.626c40.764 65.399 64.337 142.626 64.337 225.391 0 235.656-191.010 426.65-426.667 426.65s-426.667-190.993-426.667-426.65c0-235.725 191.010-426.684 426.667-426.684 82.765 0 160.009 23.582 225.425 64.367l187.008-50.099-50.103 187.025zM512 675.687c29.577 0 53.572-23.979 53.572-53.572 0-29.577-23.979-53.572-53.572-53.572s-53.572 23.979-53.572 53.572c0 29.593 23.996 53.572 53.572 53.572zM605.747 220.297h-187.494v80.367h40.175v160.717h-40.175v80.35h147.319v-241.067h40.175v-80.367z" />
<glyph unicode="&#xe921;" glyph-name="lock-key" d="M825.587 572.399h-63.177v59.802c0 64.518-26.001 125.327-73.216 171.239-47.215 45.932-109.756 71.226-176.128 71.226-0.772 0-1.566 0-2.334 0-66.274-0.592-128.469-26.517-175.135-73.002-46.422-46.268-71.998-107.352-71.998-172.028v-57.218h-65.104c-38.871 0-70.496-30.7-70.496-68.445v-482.641h768v482.62c0 37.746-31.586 68.446-70.413 68.446zM424.829 632.202c0 22.769 9.236 44.274 26.004 60.572 16.742 16.297 38.848 25.274 62.234 25.274 23.381 0 45.487-8.977 62.234-25.274 16.768-16.297 25.98-37.823 25.98-60.572v-59.802h-176.451v59.802zM618.313 734.582c-28.297 27.504-65.664 42.657-105.246 42.657s-76.971-15.153-105.248-42.657c-28.296-27.504-43.865-63.867-43.865-102.38v-59.802h-39.419v59.802c0 48.733 19.669 94.705 55.394 129.43s83.021 53.844 133.159 53.844c50.133 0 97.391-19.119 133.094-53.844s55.351-80.697 55.351-129.43v-59.802h-39.339v59.802c0 38.513-15.607 74.876-43.883 102.38zM188.895 80.503v423.45c0 5.094 4.303 9.254 9.601 9.254h627.091c5.235 0 9.519-4.143 9.519-9.254v-423.45h-646.211zM625.762 355.546c0 60.966-51.029 110.566-113.754 110.566-62.72 0-113.75-49.6-113.75-110.566 0-51.516 36.434-94.903 85.556-107.136v-118.955h56.41v118.955c49.122 12.233 85.538 55.62 85.538 107.136zM512.009 294.302c-34.748 0-63.006 27.486-63.006 61.244s28.275 61.239 63.006 61.239c34.731 0 63.006-27.482 63.006-61.239s-28.275-61.244-63.006-61.244z" />
<glyph unicode="&#xe922;" glyph-name="logout" d="M857.596 410.074h-460.797v75.853h460.797v-75.853zM750.353 607.555l134.4-132.739c14.997-14.81 14.997-38.827 0-53.636l-134.4-132.74-54.306 53.636 107.247 105.92-107.247 105.925 54.306 53.635zM665.596 751.407c0 20.946-17.19 37.926-38.4 37.926h-460.796c-21.208 0-38.4-16.98-38.4-37.926v-606.814c0-20.945 17.192-37.926 38.4-37.926h460.796c21.21 0 38.4 16.981 38.4 37.926v113.779h-76.796v-75.853h-384v530.962h384v-75.852h76.796v113.778z" />
<glyph unicode="&#xe923;" glyph-name="menu" d="M170.667 704v56.889c0 15.701 12.743 28.445 28.445 28.445h625.776c15.701 0 28.446-12.743 28.446-28.445v-56.889c0-15.701-12.745-28.445-28.446-28.445h-625.776c-15.701 0-28.445 12.743-28.445 28.445zM170.667 476.446c0 15.701 12.743 28.442 28.445 28.442h398.222c15.701 0 28.446-12.74 28.446-28.442v-56.892c0-15.701-12.745-28.442-28.446-28.442h-398.222c-15.701 0-28.445 12.74-28.445 28.442v56.892zM170.667 192c0 15.701 12.743 28.446 28.445 28.446h625.776c15.701 0 28.446-12.745 28.446-28.446v-56.887c0-15.701-12.745-28.446-28.446-28.446h-625.776c-15.701 0-28.445 12.745-28.445 28.446v56.887z" />
<glyph unicode="&#xe924;" glyph-name="minus-fill" d="M827.635 832h-631.27c-37.757 0-68.365-30.607-68.365-68.365v-631.27c0-37.756 30.607-68.365 68.365-68.365h631.27c37.756 0 68.365 30.609 68.365 68.365v631.27c0 37.757-30.609 68.365-68.365 68.365zM683.388 413.73h-342.774v68.557h342.757l0.017-68.557z" />
<glyph unicode="&#xe925;" glyph-name="phone" d="M826.039 82.611l112.627 112.61-222.729 222.374-122.069-122.069-1.058 0.474c-110.677 49.549-186.949 125.585-233.164 232.457l-0.455 1.041 122.050 122.053-222.020 223.116-112.627-112.627c-39.5-39.5-61.261-92.767-61.261-149.972 0-259.488 331.249-590.735 590.733-590.735 57.207 0 110.455 21.76 149.973 61.261v0.017zM154.135 610.721l-0.353 1.077v0.27c0 39.247 14.592 75.247 41.065 101.367l64.375 64.375 125.888-125.889-105.625-105.625 7.877-20.886c54.142-142.012 155.779-243.767 302.083-302.421l20.885-8.546 105.963 105.591 125.888-125.888-64.375-64.375c-26.475-26.475-62.473-41.067-101.367-41.067-224.444 0-522.033 297.523-522.286 522.017h-0.017z" />
<glyph unicode="&#xe926;" glyph-name="search1" d="M918.639 86.643l-200.277 200.239c58.048 69.692 86.993 159.078 80.815 249.57s-47.006 175.115-113.988 236.271c-66.982 61.155-154.961 94.133-245.641 92.072-90.677-2.061-177.069-39.001-241.204-103.136s-101.076-150.528-103.136-241.206c-2.061-90.675 30.917-178.658 92.072-245.641s145.78-107.81 236.271-113.988c90.49-6.178 179.881 22.767 249.573 80.819l200.239-200.282c2.974-2.974 6.502-5.333 10.385-6.942 3.887-1.609 8.051-2.436 12.254-2.436s8.367 0.828 12.254 2.436c3.883 1.609 7.411 3.968 10.385 6.942s5.333 6.502 6.942 10.389c1.609 3.883 2.436 8.047 2.436 12.25 0 4.207-0.828 8.371-2.436 12.254s-3.968 7.415-6.942 10.389zM160 512c0 56.962 16.891 112.644 48.537 160.006s76.625 84.275 129.251 106.073c52.625 21.798 110.533 27.501 166.4 16.389 55.863-11.113 107.183-38.542 147.46-78.819s67.708-91.594 78.818-147.461c11.115-55.867 5.41-113.775-16.388-166.4s-58.714-97.604-106.074-129.25c-47.36-31.646-103.044-48.538-160.004-48.538-76.356 0.085-149.561 30.455-203.553 84.446-53.992 53.995-84.362 127.198-84.447 203.554z" />
<glyph unicode="&#xe927;" glyph-name="piggy-bank" d="M550.221 736.641h66.522c-1.357 76.331-63.872 138.025-140.518 138.025-76.645 0-139.159-61.695-140.517-138.025h66.52c1.324 39.666 34.013 71.536 73.996 71.536s72.674-31.87 73.997-71.536zM690.807 481.246c-18.338 0-33.242-14.921-33.242-33.246s14.916-33.246 33.242-33.246c18.325 0 33.242 14.921 33.242 33.246s-14.916 33.246-33.242 33.246zM907.772 481.246h-25.033l-0.636 1.574c-18.069 44.446-47.659 83.993-85.581 114.404l-0.939 0.754v169.325c-8.179-0.352-35.187-2.297-65.246-13.345-32.96-12.121-76.48-37.989-96.678-92.475l-0.64-1.71-1.809 0.067c-3.251 0.117-7.561 0.251-11.921 0.251h-214.598c-85.883 0-166.251-38.442-220.5-105.468l-0.989-1.207-1.526 0.335c-17.3 3.872-29.857 19.581-29.857 37.318 0 20.269 15.825 36.899 35.758 38.191v66.557c-56.596-1.341-102.245-47.83-102.245-104.764 0-40.119 23.436-77.237 59.697-94.586l2.23-1.058-1.023-2.249c-16.681-36.796-25.13-76.062-25.13-116.698 0-100.608 54.333-194.607 141.809-245.321l1.257-0.721v-74.637c0-18.995 15.457-34.453 34.451-34.453h175.103v71.535h76.561v-71.535h175.104c18.991 0 34.449 15.458 34.449 34.453v75.072l1.259 0.721c54.515 31.586 97.485 80.789 120.986 138.543l0.64 1.562h25.075c17.020 0 30.865 13.845 30.865 30.865v147.831c0 17.015-13.879 30.865-30.895 30.865zM872.128 338.189h-37.837l-7.074-23.77c-17.348-58.21-59.277-106.846-115.017-133.449l-18.914-9.020v-84.079h-76.561v71.535h-209.552v-71.535h-76.562v83.691l-18.944 9.003c-75.389 35.844-124.105 112.747-124.105 195.9 0 119.718 97.383 217.105 217.097 217.105h214.584c95.27 0 180.8-63.756 207.974-155.042l7.074-23.774h37.837v-76.565z" />
<glyph unicode="&#xe928;" glyph-name="play" d="M512 874.667c-235.642 0-426.667-191.025-426.667-426.667 0-235.644 191.025-426.667 426.667-426.667 235.644 0 426.667 191.023 426.667 426.667 0 235.642-191.023 426.667-426.667 426.667zM395.421 262.426v371.149l321.425-185.575-321.425-185.574z" />
<glyph unicode="&#xe929;" glyph-name="plus-fill" d="M827.635 832h-631.27c-37.757 0-68.365-30.607-68.365-68.365v-631.27c0-37.756 30.607-68.365 68.365-68.365h631.27c37.756 0 68.365 30.609 68.365 68.365v631.27c0 37.757-30.609 68.365-68.365 68.365zM683.388 413.73h-137.101v-137.101h-68.557v137.101h-137.1v68.557h137.1v137.099h68.557v-137.099h137.101v-68.557z" />
<glyph unicode="&#xe92a;" glyph-name="qr-code" d="M85.333 483.55h391.108v391.117h-391.108v-391.117zM156.448 803.55h248.879v-248.883h-248.879v248.883zM227.564 732.433h106.665v-106.667h-106.681v106.683l0.017-0.017zM938.65 874.667h-391.108v-391.117h391.108v391.117zM867.533 554.667h-248.875v248.883h248.875v-248.883zM796.42 625.783h-106.667v106.667h106.667v-106.667zM85.333 21.333h391.108v391.117h-391.108v-391.117zM156.448 341.333h248.879v-248.883h-248.879v248.883zM334.228 270.217v-106.667h-106.681v106.667h106.681zM689.771 412.433v-142.217h-142.212v142.217h142.212zM689.771 270.217h106.667v-106.667h-106.667v106.667zM547.558 163.55h142.212v-142.217h-142.212v142.217zM938.667 412.433v-142.217h-142.212v142.217h142.212z" />
<glyph unicode="&#xe92b;" glyph-name="seal-percent" d="M911.945 513.079l-59.473 59.904v-0.862l-7.326 7.327c-3.017 3.017-4.74 6.895-4.74 11.636v94.815c0 49.993-40.943 90.936-90.935 90.936h-94.818c-3.878 0-8.188 1.724-11.204 4.741l-66.799 67.232c-16.38 16.377-39.65 25.859-64.218 25.859s-47.838-9.481-64.213-25.859l-67.235-67.232c-3.017-3.017-6.895-4.741-11.205-4.741h-94.815c-49.993 0-90.936-40.943-90.936-90.936v-94.815c0-4.31-1.724-8.189-4.741-11.206l-67.232-67.23c-17.239-17.242-26.72-40.081-26.72-64.218s9.481-46.976 26.72-64.218l67.232-67.23c3.017-3.017 4.741-6.895 4.741-11.204v-94.818c0-49.993 40.943-90.935 90.936-90.935h94.815c4.31 0 8.189-1.724 11.205-4.74l67.235-67.23c17.237-17.242 40.077-26.722 64.213-26.722s46.976 9.481 64.218 26.722l66.799 67.23c3.017 3.017 7.326 4.74 11.204 4.74h94.818c49.993 0 90.935 40.943 90.935 90.935v94.818c0 3.878 1.724 7.757 4.74 11.635l66.799 67.234c17.242 17.237 26.722 40.077 26.722 64.213s-9.481 47.407-26.722 64.218zM859.366 436.796l-66.799-67.234c-17.242-17.237-26.722-40.081-26.722-64.213v-94.818c0-9.050-7.326-16.375-16.375-16.375h-94.818c-24.132 0-47.407-9.911-64.213-26.722l-66.803-67.23c-3.878-3.878-7.326-5.602-11.204-5.602s-7.757 1.724-11.204 5.602l-67.234 67.23c-17.238 17.242-40.080 26.722-64.215 26.722h-94.815c-9.050 0-16.377 7.326-16.377 16.375v94.818c0 24.132-9.482 46.976-26.721 64.213l-66.801 67.234c-4.31 4.309-4.741 9.050-4.741 11.204s0.431 6.895 4.741 11.204l66.801 67.234c17.239 17.238 26.721 40.080 26.721 64.215v94.815c0 9.050 7.326 16.377 16.377 16.377h94.815c24.134 0 46.976 9.482 64.215 26.721l67.234 67.232c3.878 3.878 7.326 5.603 11.204 5.603s7.757-1.724 11.204-5.603l66.803-67.232c16.806-16.808 40.512-26.721 64.213-26.721h94.818c9.050 0 16.375-7.326 16.375-16.377v-94.815c0-24.134 9.481-46.976 26.722-64.215l66.799-67.234c4.309-4.309 4.74-9.050 4.74-11.204s0-6.895-4.74-11.204zM399.946 602.289c-23.273 0-41.805-18.963-41.805-41.805s18.532-41.803 41.805-41.803c23.273 0 41.803 18.961 41.803 41.803s-18.531 41.805-41.803 41.805zM624.055 377.749c-23.275 0-41.805-18.53-41.805-41.805 0-23.27 18.53-41.805 41.805-41.805 23.27 0 41.805 18.534 41.805 41.805 0 23.275-18.534 41.805-41.805 41.805zM674.91 610.909c-6.464 6.465-14.656 9.912-23.706 9.912s-17.237-3.447-23.27-9.481l-2.586-2.586h-0.862l-275.395-275.826c-6.465-6.464-9.912-14.652-9.912-23.701 0-8.619 3.447-16.811 9.481-22.844 6.464-6.464 14.653-9.911 23.703-9.911s17.239 3.447 23.704 9.911l278.412 278.412c6.464 6.465 9.911 14.653 9.911 23.704 0 8.62-3.447 16.808-9.481 22.842v-0.431z" />
<glyph unicode="&#xe92c;" glyph-name="setting" d="M512 588.529c-78.374 0-142.121-63.055-142.121-140.546s63.763-140.544 142.121-140.544c78.357 0 142.118 63.053 142.118 140.544s-63.761 140.546-142.118 140.546zM512 373.931c-41.28 0-74.884 33.212-74.884 74.052s33.587 74.052 74.884 74.052c41.297 0 74.884-33.212 74.884-74.052s-33.587-74.052-74.884-74.052zM829.572 389.606c7.206 38.746 7.206 78.025 0 116.753l-0.324 1.745 109.419 62.401-105.958 181.621-109.453-62.552-1.374 1.157c-30.276 25.617-64.674 45.267-102.229 58.411l-1.694 0.587v124.937h-211.917v-124.903l-1.696-0.587c-37.568-13.144-71.967-32.793-102.229-58.411l-1.373-1.157-109.451 62.535-105.959-181.638 109.417-62.401-0.322-1.745c-7.205-38.746-7.205-78.025 0-116.753l0.322-1.745-109.417-62.4 105.959-181.623 109.451 62.554 1.373-1.156c30.279-25.617 64.677-45.269 102.229-58.411l1.696-0.589v-124.902h211.917v124.902l1.694 0.589c37.572 13.129 71.953 32.777 102.229 58.377l1.374 1.156 109.453-62.502 105.958 181.623-109.419 62.4 0.324 1.745v-0.017zM846.763 301.184l-38.707-66.308-95.36 54.473-18.261-18.394c-32.499-32.875-73.459-56.35-118.468-67.883l-25.263-6.455v-108.826h-77.423v108.826l-25.263 6.455c-44.994 11.486-85.953 34.906-118.47 67.733l-18.259 18.389-95.363-54.468-38.705 66.308 95.261 54.404-6.934 24.811c-12.359 44.314-12.359 91.153 0 135.467l6.934 24.813-95.261 54.404 38.705 66.308 95.363-54.606 18.259 18.392c32.5 32.877 73.459 56.349 118.47 67.884l25.263 6.455v108.792h77.423v-108.842l25.263-6.589c44.975-11.485 85.935-34.906 118.451-67.733l18.244-18.241 95.364 54.622 38.703-66.308-95.262-54.404 6.933-24.815c12.361-44.309 12.361-91.153 0-135.462l-6.933-24.815 95.296-54.387z" />
<glyph unicode="&#xe92d;" glyph-name="shield-check" d="M510.114 21.333l-12.838 5.581c-14.289 6.153-347.942 153.886-347.942 421.406v231.965c0.013 22.323 7.209 44.073 20.564 62.152s32.189 31.567 53.818 38.541l288.284 93.689 288.282-93.689c21.632-6.975 40.465-20.462 53.82-38.541s20.553-39.829 20.565-62.152v-231.965c0-304.96-336.845-417.954-351.206-422.647l-13.346-4.339zM512 800.107l-265.327-86.258c-7.219-2.312-13.507-6.804-17.963-12.833s-6.851-13.286-6.844-20.731v-231.965c0-195.341 233.557-322.061 291.84-350.613 58.167 22.933 288.427 127.927 288.427 350.613v231.965c0.009 7.445-2.389 14.702-6.844 20.731s-10.743 10.521-17.963 12.833l-265.327 86.258zM479.757 357.939h-1.195c-9.178 0.137-18.236 2.099-26.62 5.764-8.384 3.669-15.923 8.964-22.161 15.569l-83.629 85.333 52.26 49.135 81.382-83.2 187.895 184.215 51.285-50.275-190.801-187.059c-6.353-6.225-13.905-11.153-22.217-14.494-8.311-3.345-17.216-5.043-26.202-4.988z" />
<glyph unicode="&#xe92e;" glyph-name="shield-check-fill" d="M800.102 781.049l-288.102 93.618-288.102-93.618c-21.707-7.055-40.594-20.636-53.979-38.813s-20.588-40.029-20.585-62.449v-231.467c0-267.52 333.653-415.253 347.942-421.406l12.838-5.581 13.346 4.339c14.362 4.693 351.206 117.687 351.206 422.647v231.467c0.004 22.42-7.198 44.271-20.587 62.449-13.385 18.178-32.273 31.759-53.978 38.813zM528.102 377.6c-6.34-6.259-13.884-11.217-22.195-14.592s-17.225-5.099-26.219-5.069h-1.199c-9.178 0.137-18.236 2.099-26.62 5.764-8.384 3.669-15.923 8.964-22.157 15.569l-83.633 85.333 52.333 49.135 81.382-83.2 187.895 184.215 51.285-50.275-190.874-186.88z" />
<glyph unicode="&#xe92f;" glyph-name="spinner-gap" d="M240.73 118.857l-60.34 60.339 120.679 120.678 60.34-60.339-120.68-120.678zM783.787 117.837l-120.678 120.678 60.339 60.339 120.678-120.678-60.339-60.339zM299.063 598.566l-120.68 120.68 60.34 60.34 120.679-120.68-60.34-60.34zM85.333 490.667h170.667v-85.333h-170.667v85.333zM469.333 192h85.333v-170.667h-85.333v170.667zM768 490.667h170.667v-85.333h-170.667v85.333zM469.333 874.667h85.333v-170.667h-85.333v170.667z" />
<glyph unicode="&#xe930;" glyph-name="x-circle-fill" d="M512 864c-82.278 0-162.706-24.398-231.117-70.109s-121.731-110.681-153.216-186.695c-31.486-76.013-39.724-159.657-23.673-240.352s55.671-154.82 113.85-213.001c58.179-58.18 132.303-97.801 213-113.852 80.695-16.051 164.339-7.812 240.354 23.676 76.011 31.484 140.983 84.804 186.692 153.216 45.713 68.412 70.11 148.838 70.11 231.117-0.115 110.294-43.981 216.038-121.971 294.028s-183.735 121.856-294.029 121.972zM662.639 342.639c2.974-2.974 5.333-6.502 6.942-10.385 1.609-3.887 2.436-8.051 2.436-12.254s-0.828-8.367-2.436-12.254c-1.609-3.883-3.968-7.411-6.942-10.385s-6.502-5.333-10.385-6.942c-3.887-1.609-8.047-2.436-12.254-2.436-4.203 0-8.367 0.828-12.254 2.436-3.883 1.609-7.411 3.968-10.385 6.942l-105.361 105.399-105.36-105.399c-2.973-2.974-6.503-5.333-10.387-6.942s-8.048-2.436-12.253-2.436c-4.204 0-8.368 0.828-12.253 2.436s-7.414 3.968-10.387 6.942c-2.973 2.974-5.332 6.502-6.941 10.385-1.609 3.887-2.437 8.051-2.437 12.254s0.828 8.367 2.437 12.254c1.609 3.883 3.968 7.411 6.941 10.385l105.4 105.361-105.4 105.36c-6.004 6.005-9.378 14.149-9.378 22.64s3.373 16.635 9.378 22.64c6.004 6.004 14.148 9.378 22.64 9.378s16.636-3.373 22.64-9.378l105.36-105.401 105.361 105.401c2.974 2.973 6.502 5.331 10.385 6.941 3.887 1.609 8.051 2.437 12.254 2.437 4.207 0 8.367-0.828 12.254-2.437 3.883-1.609 7.411-3.968 10.385-6.941s5.333-6.503 6.942-10.388c1.609-3.884 2.436-8.048 2.436-12.253s-0.828-8.368-2.436-12.253c-1.609-3.885-3.968-7.414-6.942-10.388l-105.399-105.36 105.399-105.361z" />
<glyph unicode="&#xe931;" glyph-name="all" d="M384 864h-192c-53.019 0-96-42.981-96-96v-192c0-53.018 42.981-96 96-96h192c53.018 0 96 42.982 96 96v192c0 53.019-42.982 96-96 96zM832 864h-192c-53.018 0-96-42.981-96-96v-192c0-53.018 42.982-96 96-96h192c53.018 0 96 42.982 96 96v192c0 53.019-42.982 96-96 96zM384 416h-192c-53.019 0-96-42.982-96-96v-192c0-53.018 42.981-96 96-96h192c53.018 0 96 42.982 96 96v192c0 53.018-42.982 96-96 96zM736 32c106.039 0 192 85.961 192 192s-85.961 192-192 192c-106.039 0-192-85.961-192-192s85.961-192 192-192z" />
<glyph unicode="&#xe932;" glyph-name="ebet" d="M900.518 394.654c0 0 176.99 440.555-229.794 477.701-406.781 37.146-620.186-382.234-580.855-618.112 30.591-185.361 137.293-232.909 305.177-232.909 211.222 0 418.070 156.386 475.247 258.539h-218.871c0 0-110.345-82.466-222.874-82.466-77.203 0-168.611 49.775-148.945 197.619l620.915-0.371zM586.965 705.939c165.7 12.63 171.524-159.357 171.524-159.357h-424.989c0 0 87.766 146.356 253.465 159.357z" />
<glyph unicode="&#xe933;" glyph-name="evolution" d="M730.189 714.911c1.148-1.707 2.295-3.413 3.546-5.12v-0.61c4.058-24.381 6.865-49.371 6.865-74.971 0-6.923-0.166-13.804-0.499-20.643 0.35 7.057 0.529 14.157 0.529 21.295 0 25.6-2.496 50.59-6.865 74.971 23.718-33.829 42.133-70.095 54.929-109.41 10.3-32 17.165-64.305 20.284-97.524 0.311-4.267 0.939-8.836 1.562-13.103v-3.051c-1.647-0.158-3.268-0.341-4.881-0.521-4.51-0.503-8.934-1.003-13.534-1.003l0.316 0.307c-7.65-0.265-15.27-0.58-22.878-0.892-18.722-0.772-37.376-1.54-56.188-1.549-0.077-0.218-0.158-0.435-0.239-0.653h-9.673c-24.034 0-47.753 0.917-71.471 2.743-47.437 3.657-94.251 11.584-139.814 26.21-42.133 13.41-81.145 32.61-116.099 59.734-26.528 20.724-49.31 44.8-68.972 71.924-19.974 27.429-36.515 56.99-50.871 87.771-11.001 23.314-21.476 46.629-31.95 69.943-3.491 7.771-6.983 15.543-10.494 23.314-0.098 0.191-0.196 0.323-0.284 0.441-0.193 0.259-0.34 0.456-0.34 1.083 8.739 4.267 17.789 8.533 26.84 12.495 30.897 13.714 63.042 23.467 96.748 29.867 18.726 3.352 37.763 5.486 56.8 6.095 0.937 0 3.433 0.61 3.433 0.61h26.528c0.937-0.305 1.873-0.61 3.121-0.61 22.784-0.609 45.253-3.657 67.725-8.228 36.203-7.619 70.532-19.81 103.3-36.876 50.249-26.514 92.689-61.867 127.019-106.362 2.061-2.56 3.785-5.12 5.508-7.68zM679.59 412.062c23.987 0.606 47.97 0.602 71.642-0.004v0.61c11.234-0.367 22.468-1.062 33.707-1.758 7.488-0.461 14.98-0.926 22.468-1.293h3.123v-3.959c-0.627-4.57-1.25-9.143-1.562-13.713-2.496-26.517-7.492-52.117-14.669-77.717-14.357-52.416-38.076-100.57-71.782-143.846-31.829-40.533-70.532-73.446-116.096-98.743-33.707-18.893-69.909-32.61-107.985-40.836-29.022-6.4-58.671-9.451-88.32-9.451-45.253 0-89.57 7.317-132.638 21.641-21.534 7.010-42.444 15.846-62.73 26.21-0.312 0.303-0.624 0.61-1.248 0.913 1.092 2.436 2.185 4.954 3.277 7.467s2.185 5.030 3.277 7.467c3.355 7.313 6.691 14.63 10.026 21.943 10.007 21.943 20.013 43.887 30.546 65.826 1.361 3.038 2.963 5.956 4.582 8.905 0.98 1.788 1.967 3.584 2.908 5.423l0.301 0.273c8.738 17.067 18.413 33.83 29.024 50.287 16.229 24.99 35.267 47.846 57.425 68.267 29.337 27.123 63.043 47.846 99.867 63.697 33.084 14.016 67.413 24.073 102.677 30.17 21.222 3.657 42.761 6.703 63.979 8.836v0.307c18.415 1.826 37.141 2.743 55.868 3.354h2.496l-0.162-0.273z" />
<glyph unicode="&#xe934;" glyph-name="hogaming" d="M425.533 598.187c30.936 28.061 62.1 56.332 86.479 89.147 24.375-32.815 55.543-61.086 86.477-89.147 63.927-57.99 126.865-115.085 126.865-209.527 0-66.039-49.562-119.573-110.694-119.573-45.286 0-84.087 29.444-101.231 71.514 12.971-116.156 97.754-131.819 97.754-131.819h-198.345c0 0 84.784 15.663 97.754 131.819-17.143-42.069-55.945-71.514-101.228-71.514-61.136 0-110.697 53.534-110.697 119.573 0 94.443 62.939 151.537 126.867 209.527zM938.667 448c0 235.642-191.027 426.667-426.667 426.667-235.642 0-426.667-191.025-426.667-426.667 0-235.639 191.025-426.667 426.667-426.667 235.639 0 426.667 191.027 426.667 426.667zM874.667 448c0-200.294-162.372-362.667-362.667-362.667s-362.667 162.372-362.667 362.667c0 200.295 162.371 362.667 362.667 362.667s362.667-162.371 362.667-362.667z" />
<glyph unicode="&#xe935;" glyph-name="micro" d="M704.606 463.744c27.806-42.923 56.32-87.851 85.884-132.070 6.925-10.231 16.896-18.697 26.517-26.697 3.051-2.586 10.679-2.94 13.965-0.823 2.462 1.532 3.635 10.351 1.523 13.175-56.201 78.323-69.926 169.822-82.598 261.787-3.405 24.462-13.73 36.105-32.619 38.692-21.239 2.94-34.027-6.586-45.525-29.754-43.413-87.498-86.588-175.114-132.113-261.552-12.437-23.642-31.561-43.985-49.395-64.213-13.141-15.053-20.535-14.114-26.517 4.467-9.856 31.283-19.008 63.275-23.467 95.616-13.61 97.493-8.563 195.693-4.339 293.54 1.173 28.343 5.867 56.568 7.275 85.029 1.289 25.873-10.914 43.984-29.452 47.983-22.058 4.704-38.015-3.763-50.335-28.695-72.627-147.359-161.094-285.19-252.612-421.263-1.76-2.586-3.872-4.937-9.269-11.759-5.397 27.166-12.202 49.745-14.197 72.798-9.739 113.489 15.018 218.157 86.355 308.948 71.22 90.673 163.206 147.477 278.307 161.707 168.367 20.698 306.82-36.222 406.195-173.938 173.884-241.088 52.8-581.44-233.839-658.825-143.962-38.925-275.842-8.465-390.121 88.674-25.93 21.995-46.345 50.338-69.694 75.388-8.8 9.523-7.627 17.050-1.173 27.87 51.625 85.38 102.546 170.999 153.468 256.849 10.795 18.112 20.298 36.928 30.388 55.511l6.336-0.235c0-27.048-0.352-54.098 0-81.149 1.173-68.796 5.515-137.361 27.924-203.221 5.632-16.7 13.728-33.165 23.818-47.509 29.332-42.223 84.829-50.453 125.541-19.055 38.485 29.756 63.829 70.447 87.296 111.962 30.857 54.566 59.605 110.43 86.588 160.883l-0.115-0.119z" />
<glyph unicode="&#xe936;" glyph-name="techplay" d="M128 485.205l169.709 95.85 202.775-354.295-267.341-153.327c-46.73-26.803-105.143 6.699-105.143 60.301v351.471zM128 525.252v279.679c0 53.603 58.413 87.104 105.143 60.303l246.499-141.374-351.642-198.607zM514.825 703.681l-186.648-105.418 202.661-354.091 287.45 164.86c46.729 26.799 46.729 93.803 0 120.602l-303.462 174.047z" />
<glyph unicode="&#xe937;" glyph-name="vivo" d="M938.611 446.699c-1.937-232.934-186.462-423.283-424.444-425.348-235.012-2.065-429.35 189.961-428.833 424.96 0.517 233.967 188.914 425.218 418.243 428.316 238.242 3.226 435.806-185.574 435.034-427.927zM499.319 286.933h0.384c0 50.458-0.384 101.047 0.26 151.505 0.128 11.614-3.746 18.581-13.687 24.26-88.195 50.458-176.389 101.047-264.196 152.021-14.85 8.646-17.949 4.259-17.819-11.098 0.516-101.047 0.646-201.962 0.387-303.009 0-10.97 4.649-16.132 12.783-22.583 21.693-17.293 47.777-26.581 71.279-40.521 64.435-38.327 130.161-74.59 194.852-112.661 16.141-9.549 16.013-1.677 15.885 10.453-0.128 50.458 0 101.047 0 151.505l-0.128 0.128zM805.222 646.854c-5.167 3.613-7.492 5.936-10.462 7.098-90.001 37.682-180.002 75.236-270.135 112.918-9.165 3.872-17.69 3.485-27.115-0.516-71.795-30.585-143.978-60.266-215.644-90.98-19.369-8.259-40.029-14.066-57.978-26.068 1.808-2.323 2.324-3.742 3.229-4.387 91.293-53.169 182.586-106.208 273.751-159.503 9.553-5.551 17.562-3.358 26.342 1.677 53.585 30.972 107.302 61.684 160.892 92.527 38.353 21.938 76.574 44.006 116.86 67.235h0.26zM526.562 288.226h0.388c0-50.462 0.26-101.047-0.128-151.505 0-14.195 1.293-20.134 17.301-10.714 85.871 50.33 172.13 100.015 258.645 149.312 12.655 7.228 17.946 15.488 17.818 30.327-0.516 96.917 0 193.963-0.128 290.877 0 7.614 4.262 17.809-4.262 22.068-6.716 3.355-13.427-4.517-19.627-8.001-84.706-48.393-169.156-97.434-253.867-145.699-12.134-6.967-16.657-15.356-16.397-29.163 0.644-49.169 0.256-98.338 0.256-147.503zM378.206 355.085c-0.904-11.102-1.937-20.779-11.105-26.33-9.168-5.547-17.562-0.256-24.276 4.774-21.177 15.876-33.186 37.427-31.378 64.009 1.42 20.39 15.624 26.33 32.669 15.232 21.177-13.939 30.604-34.846 34.090-57.685zM449.788 391.569c-0.516-6.839-2.197-16.132-10.978-20.002-8.393-3.742-16.526-1.549-24.274 4.514-18.465 14.583-28.925 33.297-31.507 56.269-1.162 10.065 0 20.518 10.847 26.065 10.072 5.035 17.82 0.26 25.567-5.807 17.302-13.679 30.734-39.1 30.345-61.039zM306.118 310.234c-0.904-10.321-0.387-19.486-9.814-24.388-9.814-5.035-18.853-1.161-26.342 4.518-20.015 14.967-29.829 36.002-30.991 60.523-0.387 7.484 0 16.777 8.78 21.163 9.297 4.646 18.336 2.581 26.471-3.354 20.273-14.839 29.699-35.49 31.895-58.33v-0.132zM508.066 619.994c-14.852-0.646-30.605 2.065-44.809 10.969-16.269 10.195-17.045 27.229-0.26 36.65 31.509 17.68 64.435 17.938 96.461 1.291 18.206-9.55 18.334-26.971 0.644-37.94-15.236-9.55-32.542-12.518-52.169-11.098l0.132 0.129zM707.998 390.827c-0.516-22.195-8.393-40.909-26.21-54.455-17.95-13.683-34.351-6.839-37.060 15.356-3.102 25.037 6.844 44.779 26.21 59.75 7.36 5.679 16.657 9.805 26.214 3.998 9.041-5.547 10.718-14.839 10.718-24.516l0.128-0.132zM775.71 331.106c0-22.455-9.813-40.393-27.763-53.167-16.013-11.358-32.542-3.614-36.028 15.612-3.742 21.039 13.948 55.881 33.186 65.041 18.594 8.777 30.605-2.065 30.733-27.486h-0.128zM572.318 416.422c2.193 17.421 9.681 34.842 25.822 47.748 7.232 5.807 15.497 8.777 24.538 5.419 10.202-3.742 14.076-13.163 14.332-22.583 0.777-23.616-9.037-43.23-27.635-57.685-7.744-6.063-17.818-8.128-26.598-2.581-9.557 5.939-10.074 16.777-10.458 29.683zM571.686 230.362c1.549 20.134 9.297 40.265 29.568 53.299 16.917 10.842 29.7 4.902 33.702-14.711 4.134-20.518-7.748-51.234-24.794-61.943-8.521-5.291-18.078-10.453-28.147-4.39-9.041 5.423-10.074 15.1-10.202 27.746h-0.128zM713.941 487.377c0.777 20.907 9.946 38.46 27.119 50.976 17.045 12.518 33.83 4.387 35.379-16.259 1.549-20.651-4.39-38.46-19.499-53.043-8.649-8.388-18.978-14.195-30.989-10.065-13.171 4.518-10.718 17.037-11.878 28.39h-0.132z" />
<glyph unicode="&#xe938;" glyph-name="search" d="M691.599 336.276c37.791 51.61 60.396 115 60.396 183.722 0 172.031-139.965 312.001-311.997 312.001-172.030 0-311.998-139.97-311.998-312.001 0-172.034 139.969-311.999 311.999-311.999 68.722 0 132.12 22.605 183.729 60.401l204.396-204.401 67.876 67.876c0 0-204.401 204.401-204.401 204.401zM439.999 304c-119.11 0-215.999 96.891-215.999 215.999 0 119.11 96.889 216 215.999 216s216.001-96.89 216.001-216c0-119.108-96.891-215.999-216.001-215.999z" />
<glyph unicode="&#xe939;" glyph-name="caret-double-right" d="M566.658 425.363l-320-320.002c-6.004-5.999-14.148-9.378-22.64-9.378s-16.636 3.379-22.64 9.378c-6.005 6.007-9.378 14.15-9.378 22.642s3.373 16.635 9.378 22.64l297.399 297.36-297.399 297.359c-6.005 6.005-9.378 14.148-9.378 22.641s3.373 16.635 9.378 22.64c6.004 6.004 14.148 9.377 22.64 9.377s16.636-3.373 22.64-9.377l320-320c2.976-2.972 5.336-6.502 6.946-10.386s2.439-8.049 2.439-12.254c0-4.206-0.829-8.369-2.439-12.255s-3.971-7.414-6.946-10.386zM886.656 470.643l-319.998 320c-6.004 6.004-14.148 9.377-22.64 9.377s-16.636-3.373-22.64-9.377c-6.005-6.005-9.378-14.148-9.378-22.64s3.373-16.636 9.378-22.641l297.399-297.359-297.399-297.36c-6.005-6.005-9.378-14.148-9.378-22.64s3.373-16.636 9.378-22.642c6.004-5.999 14.148-9.378 22.64-9.378s16.636 3.379 22.64 9.378l319.998 320.002c2.978 2.972 5.333 6.502 6.946 10.386s2.441 8.049 2.441 12.255c0 4.205-0.828 8.369-2.441 12.254s-3.968 7.414-6.946 10.386z" />
<glyph unicode="&#xe93a;" glyph-name="empty" d="M854.64 694.64l-160 160c-2.974 2.971-6.504 5.326-10.389 6.932s-8.048 2.431-12.251 2.428h-320c-16.974 0-33.253-6.743-45.254-18.745-12.003-12.002-18.746-28.281-18.746-45.255v-64h-64c-16.974 0-33.253-6.742-45.254-18.746-12.003-12.002-18.746-28.28-18.746-45.254v-576c0-16.974 6.742-33.253 18.746-45.254 12.002-12.003 28.28-18.746 45.254-18.746h448c16.974 0 33.253 6.742 45.254 18.746 12.003 12.002 18.746 28.28 18.746 45.254v64h64c16.974 0 33.253 6.742 45.254 18.746 12.003 12.002 18.746 28.28 18.746 45.254v448c0.003 4.203-0.821 8.366-2.427 12.251s-3.962 7.414-6.933 10.389zM544 192h-192c-8.486 0-16.626 3.371-22.627 9.373s-9.373 14.141-9.373 22.627c0 8.486 3.371 16.626 9.373 22.627s14.141 9.373 22.627 9.373h192c8.486 0 16.626-3.371 22.627-9.373s9.373-14.141 9.373-22.627c0-8.486-3.371-16.626-9.373-22.627s-14.141-9.373-22.627-9.373zM544 320h-192c-8.486 0-16.626 3.371-22.627 9.373s-9.373 14.141-9.373 22.627c0 8.486 3.371 16.626 9.373 22.627s14.141 9.373 22.627 9.373h192c8.486 0 16.626-3.371 22.627-9.373s9.373-14.141 9.373-22.627c0-8.486-3.371-16.626-9.373-22.627s-14.141-9.373-22.627-9.373zM800 224h-64v320c0.003 4.203-0.821 8.366-2.427 12.251s-3.962 7.414-6.933 10.389l-160 160c-2.974 2.971-6.504 5.326-10.389 6.933-3.885 1.605-8.048 2.43-12.251 2.427h-192v64h306.76l141.24-141.24v-434.76z" />
<glyph unicode="&#xe93b;" glyph-name="facebook" d="M446.805 412.847c-2.048 0-47.104 0-67.584 0-10.923 0-14.336 4.096-14.336 14.336 0 27.307 0 55.296 0 82.603 0 10.923 4.096 14.336 14.336 14.336h67.584c0 2.048 0 41.642 0 60.074 0 27.307 4.779 53.248 18.432 77.141 14.336 24.576 34.816 40.96 60.757 50.517 17.067 6.144 34.133 8.875 52.565 8.875h66.901c9.557 0 13.653-4.096 13.653-13.653v-77.824c0-9.557-4.096-13.653-13.653-13.653-18.432 0-36.864 0-55.296-0.683-18.432 0-27.989-8.875-27.989-27.989-0.683-20.48 0-40.277 0-61.44h79.189c10.923 0 15.019-4.096 15.019-15.019v-82.603c0-10.923-3.413-14.336-15.019-14.336-24.576 0-77.141 0-79.189 0v-222.549c0-11.605-3.413-15.701-15.701-15.701-28.672 0-56.661 0-85.333 0-10.24 0-14.336 4.096-14.336 14.336 0 71.68 0 221.184 0 223.232z" />
<glyph unicode="&#xe93c;" glyph-name="messager" d="M810.667 470.101c0-152.755-133.747-276.565-298.667-276.565-28.954-0.017-57.779 3.87-85.69 11.567l-101.71-55.77v105.455c-67.825 50.667-111.267 128.047-111.267 215.313 0 152.754 133.748 276.565 298.667 276.565s298.667-123.865 298.667-276.565zM541.679 374.327l163.29 173.228-146.509-81.072-77.926 81.072-163.289-173.279 148.411 81.126 76.023-81.075z" />
<glyph unicode="&#xe93d;" glyph-name="telegram" d="M223.884 458.496l137.638-50.573 53.274-168.666c3.409-10.803 16.829-14.797 25.733-7.629l76.723 61.577c8.043 6.451 19.494 6.771 27.9 0.764l138.377-98.906c9.527-6.818 23.027-1.677 25.417 9.655l101.372 480.033c2.607 12.38-9.749 22.708-21.726 18.149l-564.868-214.526c-13.94-5.291-13.818-24.721 0.161-29.879zM406.21 434.846l268.994 163.101c4.834 2.923 9.809-3.513 5.658-7.304l-221.999-203.153c-7.804-7.151-12.838-16.721-14.263-27.106l-7.561-55.172c-1.003-7.369-11.513-8.098-13.578-0.969l-29.084 100.608c-3.331 11.473 1.523 23.731 11.833 29.995z" />
<glyph unicode="&#xe93e;" glyph-name="global" d="M85.852 424.905c2.025-31.151 5.432-55.782 14.019-87.561 2.329-8.619 9.881-14.4 18.813-14.4h119.715c11.621 0 20.582 9.937 19.382 21.491-7.068 68.083-7.826 138.893-2.196 207.568 0.934 11.412-7.967 21.072-19.421 21.072h-117.479c-8.93 0-16.483-5.783-18.813-14.403-5.793-21.452-9.975-43.562-12.301-66.184-2.092-20.301-2.326-33.485-2.216-53.53l0.497-14.054zM268.396 651.476c7.876 44.132 18.445 86.377 31.471 125.824 5.823 17.636-14.282 32.69-29.571 22.142-50.999-35.18-94.021-81.163-125.689-134.614-7.717-13.024 1.626-29.412 16.767-29.412h87.838c9.527 0 17.51 6.684 19.183 16.061zM690.897 658.685c-14.443 72.875-36.783 139.279-65.911 194.224-2.705 5.104-7.010 8.451-12.629 9.812-65.788 15.934-134.946 15.921-200.69 0-5.617-1.361-9.923-4.706-12.631-9.812-29.124-54.947-51.464-121.35-65.908-194.224-2.4-12.108 6.769-23.27 19.115-23.27h319.541c12.348 0 21.517 11.162 19.115 23.27zM774.81 635.415h87.842c15.138 0 24.482 16.387 16.768 29.411-31.671 53.46-74.697 99.456-125.7 134.628-15.287 10.545-35.392-4.509-29.568-22.144 13.026-39.45 23.595-81.699 31.475-125.836 1.673-9.375 9.66-16.059 19.183-16.059zM785.626 322.944h119.718c8.93 0 16.482 5.777 18.812 14.4 5.794 21.44 9.975 43.554 12.297 66.185 2.27 22.178 2.214 32.333 2.214 54.383 0 8.836-1.429 26.965-2.214 34.577-2.325 22.622-6.507 44.732-12.301 66.184-2.33 8.62-9.882 14.403-18.812 14.403h-117.478c-11.452 0-20.356-9.66-19.422-21.072 5.632-68.68 4.873-139.481-2.193-207.568-1.203-11.558 7.761-21.491 19.379-21.491zM751.1 245.039c-9.323-45.402-22.037-90.825-38.217-133.188-6.69-17.519 12.924-33.472 28.719-23.351 56.329 36.087 103.637 85.047 137.805 142.69 7.718 13.026-1.626 29.414-16.768 29.414h-92.45c-9.353 0-17.207-6.409-19.089-15.565zM311.136 111.863c-16.179 42.364-28.89 87.774-38.211 133.175-1.88 9.156-9.738 15.565-19.087 15.565h-92.452c-15.142 0-24.483-16.393-16.765-29.414 34.162-57.638 81.473-106.586 137.797-142.682 15.793-10.116 35.41 5.833 28.718 23.356zM666.342 260.604h-308.66c-12.577 0-21.8-11.571-18.996-23.825 17.527-76.604 43.916-144.96 77.519-198.537 2.958-4.715 7.259-7.676 12.722-8.759 54.848-10.863 111.27-10.871 166.17 0 5.461 1.084 9.762 4.045 12.719 8.759 33.604 53.577 59.994 121.92 77.521 198.537 2.807 12.254-6.417 23.825-18.995 23.825zM314.22 460.501c0-40.879 2.407-81.203 6.919-120.311 1.14-9.877 9.41-17.246 19.357-17.246h343.032c9.95 0 18.219 7.369 19.358 17.246 8.196 71.014 9.139 143.599 2.675 215.155-0.909 10.073-9.289 17.729-19.405 17.729h-348.288c-10.118 0-18.497-7.656-19.408-17.729-2.804-31.065-4.241-62.788-4.241-94.843z" />
<glyph unicode="&#xe93f;" glyph-name="support" d="M637.914 643.816l37.892 37.915c-43.648 43.674-101.687 68.151-163.567 68.151-61.875 0-119.917-23.997-163.567-67.672l37.894-38.395c33.577 33.596 78.185 52.313 125.673 52.313s92.096-18.717 125.675-51.833v-0.48zM873.911 519.031l-5.756-2.88-0.96 7.198c-2.398 193.897-161.647 351.317-355.435 351.317s-352.559-157.42-355.436-351.317v-4.318h-4.317c-37.414-2.402-66.674-33.596-66.674-71.031v-213.572c0-39.356 32.138-71.514 71.471-71.514h106.487c19.667 0 35.975 16.32 35.975 35.998v178.057c0 19.2-8.634 48.474-19.666 65.271l-51.325 77.269v1.442c0.959 155.98 128.551 283.164 284.446 283.164 155.891 0 283.482-127.184 283.964-283.164v-1.442l-0.96-1.438-50.364-75.831c-11.034-16.798-20.147-46.071-20.147-65.271v-187.657l-1.438-1.438c-53.726-60.476-130.953-95.031-212.015-95.031h-71.471v-71.509h71.471c111.283 0 213.931 51.354 282.526 140.621l1.438 1.92h71.471c39.334 0 71.471 32.158 71.471 71.514v213.572c0 36.954-28.779 68.151-65.233 71.031l0.478-0.96zM156.804 234.428v213.094h33.097l30.22-45.116c3.357-5.282 7.674-19.678 7.674-25.916v-142.063h-70.991zM796.203 234.428v142.063c0 6.238 4.8 21.116 7.676 25.434l30.221 45.598h33.097v-213.094h-70.993z" />
<glyph unicode="&#xe940;" glyph-name="Trophy" d="M289.201 867.515c-4.659-4.579-7.277-10.82-7.277-17.296l24.846 0.031c-24.846 0-24.846-0.031-24.846-0.031v-0.211l0.003-0.552 0.022-2.012c0.025-1.737 0.075-4.254 0.172-7.488 0.195-6.466 0.583-15.801 1.353-27.485 1.538-23.352 4.608-56.169 10.743-94.258 12.215-75.833 36.825-174.146 86.879-260.282 16.295-28.041 26.159-59.017 28.037-90.684 1.286-21.679-1.108-42.876-9.596-60.083-8.021-16.265-22.223-30.605-48.763-38.626-11.753-3.554-19.094-15.019-17.266-26.97 1.827-11.947 12.274-20.787 24.57-20.787h307.846c12.297 0 22.741 8.841 24.567 20.787 1.83 11.951-5.513 23.415-17.267 26.97-26.539 8.017-40.742 22.362-48.759 38.626-8.491 17.207-10.884 38.404-9.596 60.087 1.877 31.663 11.738 62.639 28.032 90.679 50.057 86.135 74.667 184.448 86.882 260.282 6.135 38.089 9.203 70.906 10.743 94.258 0.768 11.684 1.156 21.019 1.353 27.485 0.098 3.233 0.145 5.751 0.171 7.488l0.021 2.012 0.004 0.552v0.241c0 0 0 0-24.845 0h24.845c0 6.476-2.615 12.686-7.275 17.265-4.663 4.579-10.982 7.151-17.57 7.151h-410.461c-6.589 0-12.909-2.572-17.569-7.151zM565.261 370.091c-1.549-26.112 0.887-56.649 14.485-84.224 2.778-5.628 5.986-11.063 9.651-16.247h-154.795c3.669 5.184 6.874 10.62 9.651 16.247 13.602 27.575 16.038 58.112 14.49 84.224-2.359 39.748-14.694 77.982-34.495 112.060-45.847 78.894-69.189 170.685-80.95 243.699-5.853 36.335-8.777 67.626-10.236 89.777-0.241 3.66-0.442 7.069-0.61 10.207zM332.453 825.834h359.093c-0.166-3.138-0.367-6.546-0.606-10.207-1.459-22.151-4.386-53.443-10.236-89.778-11.763-73.013-35.106-164.805-80.951-243.699-19.802-34.078-32.137-72.311-34.492-112.060zM281.924 245.201c0 13.483 11.124 24.418 24.846 24.418h410.461c13.722 0 24.849-10.935 24.849-24.418v-199.45c0-13.487-11.127-24.418-24.849-24.418h-410.461c-13.722 0-24.846 10.931-24.846 24.418v199.45zM331.616 220.783v-150.618h360.771v150.618h-360.771zM184.515 814.785c4.706 5.968 11.956 9.46 19.639 9.46h102.615c13.722 0 24.846-10.932 24.846-24.416s-11.124-24.416-24.846-24.416h-90.436l-36.63-46.45c0.405-1.253 0.884-2.647 1.449-4.182 3.732-10.143 11.247-26.499 26.185-48.838 29.922-44.743 89.478-113.256 207.401-203.516 14.941-11.435 25.586-24.585 30.416-39.603 4.962-15.415 2.918-30.084-2.594-42.466-10.283-23.087-32.79-39.159-49.116-47.39-12.209-6.153-27.184-1.417-33.447 10.581s-1.442 26.714 10.767 32.87c11.868 5.982 22.627 15.33 26.273 23.514 1.45 3.26 1.536 5.692 0.739 8.171-0.926 2.876-3.929 8.418-13.572 15.799-120.969 92.591-184.725 164.877-218.393 215.221-16.856 25.204-26.206 44.965-31.389 59.051-2.591 7.041-4.134 12.649-5.053 16.79-0.459 2.069-0.761 3.768-0.959 5.092-0.099 0.662-0.172 1.229-0.226 1.702l-0.067 0.638-0.024 0.265-0.010 0.119-0.005 0.056c0 0-0.004 0.054 24.768 1.928l-24.773-1.874c-0.473 6.042 1.356 12.041 5.134 16.83l51.308 65.064zM692.386 799.829c0 13.485 11.123 24.416 24.845 24.416h102.613c7.684 0 14.933-3.493 19.639-9.46l51.311-65.066c3.776-4.79 5.606-10.788 5.133-16.83l-24.772 1.874c24.772-1.874 24.768-1.928 24.768-1.928l-0.004-0.056-0.013-0.119-0.021-0.265-0.068-0.638c-0.055-0.473-0.128-1.040-0.226-1.702-0.201-1.324-0.499-3.023-0.96-5.092-0.917-4.141-2.462-9.748-5.052-16.79-5.184-14.086-14.532-33.847-31.39-59.051-33.668-50.344-97.425-122.633-218.394-215.219-9.643-7.381-12.646-12.924-13.572-15.804-0.798-2.479-0.713-4.911 0.738-8.166 3.648-8.188 14.404-17.536 26.274-23.518 12.211-6.153 17.033-20.868 10.769-32.866-6.263-12.002-21.239-16.738-33.446-10.581-16.329 8.226-38.835 24.299-49.118 47.39-5.513 12.378-7.556 27.051-2.594 42.466 4.83 15.019 15.475 28.169 30.417 39.603 117.922 90.259 177.476 158.772 207.398 203.515 14.942 22.339 22.455 38.694 26.185 48.838 0.567 1.535 1.045 2.929 1.451 4.182l-36.629 46.452h-90.436c-13.722 0-24.845 10.932-24.845 24.416zM384.539 144.358c0 13.487 11.124 24.418 24.846 24.418h205.228c13.726 0 24.849-10.931 24.849-24.418 0-13.483-11.123-24.414-24.849-24.414h-205.228c-13.722 0-24.846 10.931-24.846 24.414zM590.502 321.626h-156.497v48.832h156.497v-48.832z" />
<glyph unicode="&#xe941;" glyph-name="plus18" horiz-adv-x="1056" d="M514.918-63.875c-272.787 0-494.614 221.827-494.614 494.464s221.827 494.614 494.614 494.614c47.213 0 93.827-6.595 138.79-19.785 15.29-4.496 23.981-20.384 19.485-35.672s-20.384-23.981-35.67-19.485c-39.718 11.541-80.938 17.386-122.605 17.386-241.012 0-437.059-196.047-437.059-437.059 0-241.011 196.047-437.059 437.059-437.059s437.059 196.048 437.059 437.059c0 36.573-4.496 72.845-13.341 107.917-3.898 15.437 5.395 31.024 20.835 34.922 15.286 3.898 31.024-5.395 34.922-20.832 10.042-39.718 15.139-80.787 15.139-122.006 0-272.787-221.827-494.614-494.614-494.614v0.15zM890.973 634.288c-15.888 0-28.778 12.891-28.778 28.778v268.141c0 15.888 12.89 28.777 28.778 28.777s28.778-12.89 28.778-28.777v-268.29c0-15.888-12.89-28.779-28.778-28.779v0.15zM1024.966 768.289h-268.291c-15.888 0-28.778 12.89-28.778 28.778s12.89 28.778 28.778 28.778h268.291c15.888 0 28.778-12.89 28.778-28.778s-12.89-28.778-28.778-28.778zM318.425 255.331v256.899c-47.813-36.72-80.038-55.005-96.525-55.005-7.944 0-14.988 3.146-20.984 9.443-6.145 6.294-9.143 13.638-9.143 21.882 0 9.594 2.998 16.637 8.993 21.133s16.637 10.342 31.925 17.536c22.782 10.794 40.918 22.035 54.707 33.875 13.639 11.84 25.78 25.181 36.272 39.869s17.386 23.68 20.685 27.13c3.146 3.446 9.293 5.094 18.134 5.094 10.042 0 17.987-3.898 23.981-11.539 5.997-7.645 8.995-18.288 8.995-31.926v-323.296c0-37.773-12.89-56.806-38.672-56.806-11.539 0-20.682 3.898-27.728 11.539-6.893 7.645-10.491 19.037-10.491 34.173h-0.15zM491.242 525.549c0 18.886 5.094 36.573 15.437 53.21 10.192 16.637 25.331 29.978 45.114 40.019 19.786 10.042 43.018 14.989 69.549 14.989 22.33 0 42.115-2.998 59.053-8.694 16.938-5.846 31.024-13.939 42.416-24.131 11.242-10.192 19.635-21.882 25.181-34.771 5.395-12.89 8.243-26.531 8.243-41.069 0-18.435-4.797-34.922-14.24-49.462-9.44-14.538-23.68-26.378-42.566-35.52 16.038-6.147 29.229-14.39 39.869-24.432 10.493-10.042 18.435-21.734 23.834-35.072 5.395-13.341 8.093-28.029 8.093-44.218 0-23.68-5.696-45.264-17.235-64.448-11.542-19.334-28.33-34.474-50.512-45.264-22.182-10.944-48.413-16.339-78.538-16.339-30.128 0-58.006 5.395-80.189 16.339-22.182 10.941-38.97 25.93-50.211 45.114-11.242 19.034-16.938 40.467-16.938 64.301 0 50.659 23.834 85.434 71.795 104.166-38.669 18.138-57.856 46.614-57.856 85.584l-0.298-0.301zM693.731 338.646c0 14.688-2.995 27.427-8.992 38.371-5.994 10.941-14.538 19.334-25.478 25.178-10.944 5.846-23.082 8.694-36.723 8.694-19.184 0-35.373-6.445-48.262-19.184-13.040-12.742-19.485-30.726-19.485-53.658 0-14.691 2.998-27.581 9.142-38.822 6.147-11.238 14.39-19.933 25.030-25.93 10.493-6.144 22.333-9.142 35.222-9.142 12.893 0 25.030 3.149 35.523 9.293 10.493 6.147 18.886 14.989 24.88 26.23 5.997 11.242 8.995 24.282 8.995 38.97h0.147zM623.139 579.808c-17.686 0-31.926-5.546-42.717-16.486-10.794-10.944-16.189-25.181-16.189-42.566 0-16.038 5.546-29.379 16.637-40.019 11.091-10.643 25.482-15.888 42.867-15.888 8.842 0 16.938 1.347 24.131 4.195s13.488 6.746 18.586 11.693c5.245 4.944 9.142 10.941 11.99 17.837 2.848 6.893 4.195 14.387 4.195 22.781 0 11.091-2.547 21.133-7.491 29.978-4.947 8.842-11.994 15.888-20.986 20.832-8.992 5.098-19.334 7.645-31.024 7.645z" />
<glyph unicode="&#xe942;" glyph-name="be" horiz-adv-x="1536" d="M168.046 444.147h103.712v-148.765h-34.004v46.39c-9.351-15.302-13.602-20.768-22.103-28.054-19.552-17.002-43.355-25.987-68.858-25.987-69.708 0-124.114 68.006-124.114 155.568 0 87.558 54.042 157.389 123.264 157.389 28.539 0 62.057-8.138 89.26-51.856v46.39h31.454v-95.21h-32.789c-4.251 16.637-9.351 27.203-17.002 36.554-17.002 20.886-39.954 32.79-63.757 32.79-37.040 0-90.11-31.456-90.11-124.115 0-71.894 38.74-125.45 90.596-125.45 37.89 0 73.594 31.088 82.095 71.043 1.336 5.952 1.7 11.901 2.186 24.288h-69.708v29.389l-0.122-0.365zM527.389 295.37h-64.608v40.442c-18.214-28.541-42.989-44.691-76.509-44.691-42.502 0-73.592 29.389-73.592 68.858 0 43.354 38.255 65.091 128.364 73.594 3.037 0.486 12.387 1.216 21.254 2.186v23.44c0 25.866-20.038 42.138-51.491 42.138-33.155 0-48.093-11.050-54.893-40.438h-34.49c5.101 22.954 11.901 34.854 25.504 46.755 15.299 12.752 36.554 19.552 61.206 19.552 46.755 0 86.707-21.738 86.707-79.059v-125.936h32.304v-26.838h0.243zM462.298 412.32l-20.89-2.55c-69.709-8.502-93.146-21.254-93.146-50.157 0-23.802 20.886-43.354 47.242-43.354 40.438 0 66.794 38.253 66.794 59.142v36.918zM621.994 481.197c10.202 15.667 30.605 47.242 72.259 47.242 30.24 0 47.606-15.789 53.19-47.606 8.989 15.302 13.238 20.89 21.741 28.054 14.934 13.235 31.088 19.552 48.941 19.552 34.854 0 55.254-22.589 55.254-62.058v-144.154h31.453v-26.838h-64.24v158.97c0 31.939-10.688 46.39-32.79 46.39-39.59 0-60.358-47.606-60.358-62.906v-115.616h32.79v-26.838h-65.456v164.192c0 28.538-10.688 41.29-32.79 41.29-35.341 0-60.355-43.84-60.355-64.608v-113.914h32.301v-26.838h-98.246v26.838h33.155v175.242h-33.155v27.203h66.307v-43.597zM938.835 608.33h63.757v-132.253c8.502 16.154 34.854 50.643 74.81 50.643 51.491 0 90.595-52.342 90.595-119.501 0-62.541-41.654-114.762-91.446-114.762-40.438 0-59.99 26.838-73.958 45.904v-42.989h-65.091v26.838h32.304v259.277h-31.091v26.842h0.122zM1002.592 391.917c0-37.888 30.605-71.408 65.459-71.408 39.104 0 64.243 35.341 64.243 90.112s-25.139 88.896-62.909 88.896c-33.152 0-66.794-37.040-66.794-69.344v-38.256zM1193.866 608.33h65.091v-286.24h30.605v-26.717h-96.061v26.717h32.666v259.398h-32.301v26.842zM1510.589 358.285c-4.736-15.789-9.837-25.139-18.339-34.854-18.336-21.251-43.354-32.79-71.891-32.79-62.058 0-105.414 48.458-105.414 118.163 0 69.709 43.357 118.65 99.949 118.65s100.797-44.205 100.797-124.112h-165.405c2.915-33.642 10.688-52.342 26.352-67.645 11.904-11.536 25.99-17.002 42.992-17.002 26.352 0 42.506 11.901 54.042 39.59h36.918zM1477.798 428.477c-2.55 28.541-8.986 44.205-22.102 56.957-10.202 9.35-22.95 14.086-37.888 14.086-27.69 0-50.643-18.701-60.845-48.941-1.699-5.462-3.885-14.086-4.736-22.102h125.571zM128.945 240.797h71.894l82.459-250.899h22.588v-48.941h-68.857l-19.552 65.091h-105.412l-19.552-65.091h-69.708v48.941h22.952l83.309 250.899h-0.122zM165.135 184.691l-39.955-132.736h79.059l-39.105 132.736zM304.188 168.547h90.961v-44.205h-22.954l31.453-133.952 37.405 178.157h58.656l37.891-176.093 30.237 131.888h-22.102v44.205h91.325v-44.205h-19.552l-48.819-183.258h-60.477l-37.77 158.118-35.702-158.118h-61.21l-50.275 183.258h-19.067v44.205zM852.25-14.701h19.552v-44.205h-70.557v26.838c-23.44-23.44-40.806-31.456-68.858-31.456-45.542 0-80.394 30.605-80.394 71.046 0 66.79 75.293 73.958 148.035 80.758-0.483 34.854-8.986 43.84-42.138 43.84-23.44 0-39.59-13.238-40.806-34.49l-55.254 1.699c2.912 45.542 39.59 74.81 93.51 74.81 62.906 0 96.909-28.538 96.909-80.394v-108.448zM799.059 48.691c-53.555-5.101-88.41-9.837-88.41-41.29 0-18.704 14.938-31.091 37.405-31.091 28.902 0 51.005 21.738 51.005 50.157v22.224zM989.238 133.197c14.938 28.902 31.453 40.803 56.957 40.803 7.651 0 14.451-0.851 25.504-3.037v-53.19c-10.202 2.064-18.339 3.037-27.69 3.037-29.754 0-54.893-21.254-54.893-47.242v-88.41h27.203v-44.205h-105.046v44.205h22.102v139.050h-21.738v44.205h77.357v-35.338l0.243 0.122zM1300.493 15.875c-10.198-49.306-51.491-79.91-106.746-79.91-63.757 0-110.512 49.792-110.512 119.501 0 69.706 47.238 119.862 110.998 119.862 36.189 0 68.006-17.002 87.558-46.39 20.89-31.939 21.738-62.058 22.589-85.011h-164.189c5.584-59.142 44.205-62.054 54.89-62.054 22.589 0 37.405 10.685 46.39 34.003h59.021zM1242.202 83.034c-3.763 28.902-21.251 44.688-48.090 44.688-24.653 0-43.843-16.637-51.008-44.688h99.098zM23.53 960h114.399c51.006 0 70.194-1.7 84.645-8.137 20.038-8.501 45.905-32.789 45.905-72.258 0-30.239-9.837-45.055-38.74-60.843 34.004-14.087 49.791-35.34 49.791-74.808 0-50.156-38.74-83.795-96.547-83.795h-160.304v48.941h23.438v201.958h-22.588v48.941zM107.325 911.059v-72.744h59.142c25.503 0 42.99 15.666 42.99 38.254 0 20.038-19.552 34.49-47.241 34.49h-54.892zM107.325 791.196v-82.095h62.907c26.839 0 47.605 17.488 47.605 40.44 0 25.139-21.252 41.655-53.556 41.655h-56.956zM530.55 735.078c-10.202-49.306-51.494-79.909-106.749-79.909-63.757 0-110.513 49.791-110.513 119.499s47.242 119.863 110.999 119.863c36.189 0 68.006-17.002 87.558-46.391 20.89-31.94 21.738-62.057 22.589-85.010h-164.189c5.584-59.142 44.205-62.057 54.89-62.057 22.589 0 37.405 10.687 46.394 34.004h59.021zM472.256 802.235c-3.763 28.903-21.251 44.691-48.090 44.691-24.653 0-43.84-16.638-51.008-44.691h99.098z" />
<glyph unicode="&#xe943;" glyph-name="game-care" horiz-adv-x="960" d="M174.069 10.333c-1.929-45.018-32.028-74.346-72.288-74.346-21.095 0-39.231 8.102-53.637 24.31-11.962 13.379-18.394 30.742-18.394 50.166 0 19.421 7.589 37.814 22.124 52.221 13.763 13.763 30.742 20.582 51.451 20.582 28.941 0 51.194-14.15 62.127-38.717h-25.34c-9.39 11.962-22.51 18.134-38.46 18.134-13.377 0-25.725-5.146-35.115-14.79-9.904-10.163-15.564-24.182-15.564-37.69 0-14.922 5.145-28.554 14.406-38.074 9.776-10.16 23.153-15.949 36.273-15.949 21.352 0 38.074 11.318 48.878 34.086h-64.185v19.936h87.724v0.128zM196.191-61.2h-21.738l55.438 141.747h19.937l55.438-141.747h-22.51l-15.564 41.29h-55.052l-15.95-41.29zM239.796 53.792l-20.323-53.766h40.26l-19.937 53.766zM312.984-61.2v141.747h30.484l41.034-109.59 41.030 109.59h30.099v-141.747h-19.293l1.414 122.966-46.048-122.966h-14.538l-45.789 122.966 1.414-122.966h-19.809zM545.802-64.013c-20.966 0-38.717 7.718-52.608 22.509-13.376 14.15-20.195 31.645-20.195 52.611 0 19.549 7.334 37.43 21.482 51.194 13.891 13.763 31.514 20.966 51.581 20.966 33.056 0 61.354-21.741 70.614-56.598h-37.43c-7.587 13.891-18.906 21.354-32.928 21.354-21.094 0-37.686-16.336-37.686-37.046 0-22.509 17.491-39.872 37.043-39.872 13.379 0 25.082 7.203 32.672 20.323h37.686c-9.389-34.474-36.272-55.44-70.358-55.44h0.128zM651.277-61.2h-37.814l54.406 141.747h28.301l54.406-141.747h-38.33l-6.947 20.579h-46.819l-7.203-20.579zM682.019 34.112l-14.15-45.405h28.17l-14.019 45.405zM753.149-61.2v141.747h47.078c14.918 0 26.368-1.030 35.885-7.718 12.605-8.746 19.165-22.125 19.165-39.616 0-22.896-11.962-40.003-32.026-45.664l34.73-48.621h-42.835l-27.139 45.664v-45.664h-34.73l-0.128-0.128zM794.566 15.075c17.107 0 25.469 4.374 25.469 17.107 0 11.706-7.331 16.592-22.768 16.592h-9.517v-33.699h6.816zM873.546-61.2v141.747h76.922v-31.258h-42.32v-22.896h42.32v-31.514h-42.32v-24.694h42.32v-31.258h-76.922v-0.128zM925.379 469.619c-3.859 2.186-7.974 3.603-12.477 4.246-1.030 0.128-2.058 0.256-3.216 0.256-0.515 0-1.158 0.128-1.67 0.128h-1.546c-1.414 0-2.829 0-4.243 0h-277.062c-19.552 0-35.501-15.949-35.501-35.501s15.949-35.501 35.501-35.501h107.661c3.6 0 6.432-2.96 6.432-6.432 0-2.058-1.030-3.731-2.573-4.886-59.040-31.514-134.931-50.678-218.026-50.678-20.192 0-40 1.155-59.168 3.344v-80.65c16.723-1.286 33.83-1.93 51.066-1.93 115.635 0 220.854 28.298 299.571 74.474 1.030 0.387 2.061 0.643 3.216 0.643 3.859 0 6.947-3.085 6.947-6.944 0-0.643-0.128-1.418-0.387-2.058l-16.464-44.634c-8.618-23.411 3.344-49.523 26.883-58.141 5.146-1.93 10.419-2.829 15.693-2.829 18.394 0 35.76 11.318 42.448 29.584l59.424 161.296c8.106 21.869-2.058 45.92-22.509 55.955v0.256zM518.528 774.213c83.734 0 160.397-19.294 219.565-51.194 0 0 37.562-27.012 55.568-1.029 20.579 29.842-20.451 48.364-20.451 48.364-73.446 34.601-164.387 55.052-262.784 55.052-17.238 0-34.346-0.643-51.066-1.93v-52.48c19.293 2.187 38.973 3.344 59.168 3.344v-0.129zM93.032 959.969c-34.601 0-62.641-28.041-62.641-62.641v-683.139c0-34.602 28.041-62.64 62.641-62.64h366.331v112.547c-220.34 16.080-391.542 135.187-391.542 279.635s171.203 263.557 391.542 279.636v136.602h-366.331zM178.695 557.757c0-106.634 121.167-195.258 280.665-213.136v426.27c-159.498-17.879-280.665-106.374-280.665-213.134z" />
<glyph unicode="&#xe944;" glyph-name="promotion" horiz-adv-x="1067" d="M466.010 543.941c-14.711 0-29.303 4.405-41.78 13.074-22.096 15.32-32.936 40.815-28.32 66.481l5.301 29.446c0.625 3.61-0.625 7.333-3.365 9.891l-22.424 20.806c-19.535 18.247-26.474 44.936-18.017 69.721 8.457 24.756 30.464 42.492 57.534 46.243l30.971 4.292c3.81 0.54 7.057 2.814 8.755 6.083l13.905 26.802c12.092 23.363 36.57 37.888 63.876 37.888 27.281 0 51.729-14.524 63.821-37.888l13.875-26.802c1.728-3.269 4.975-5.542 8.755-6.083l31.031-4.292c27.008-3.752 49.045-21.459 57.502-46.243s1.519-51.502-18.014-69.693l-22.426-20.862c-2.769-2.529-4.019-6.253-3.366-9.891l5.303-29.417c4.612-25.666-6.225-51.161-28.322-66.481-22.067-15.291-50.773-17.281-75.012-5.173l-27.695 13.899c-3.426 1.677-7.445 1.705-10.871 0l-27.755-13.899c-10.513-5.286-21.858-7.873-33.173-7.873l-0.090-0.029zM532.386 817.85c-2.709 0-7.68-0.796-10.479-6.196l-13.879-26.802c-10.364-20.067-30.404-33.965-53.662-37.177l-30.941-4.292c-6.254-0.881-8.576-5.145-9.41-7.589-0.834-2.473-1.579-7.219 2.978-11.426l22.393-20.806c16.798-15.661 24.452-38.143 20.489-60.171l-5.299-29.474c-1.071-5.94 2.441-9.379 4.646-10.886 2.142-1.563 6.669-3.667 12.237-0.853l27.785 13.927c20.698 10.374 45.474 10.374 66.261 0l27.725-13.927c5.628-2.814 10.125-0.682 12.267 0.853 2.206 1.507 5.687 4.945 4.646 10.886l-5.299 29.446c-3.964 22.056 3.691 44.538 20.489 60.171l22.421 20.862c4.527 4.178 3.814 8.925 2.978 11.398-0.832 2.444-3.157 6.679-9.378 7.589l-31.002 4.292c-23.138 3.183-43.209 17.082-53.632 37.148l-13.879 26.831c-2.799 5.372-7.74 6.196-10.453 6.196zM532.356 21.333c-30.255 0-60.45 5.542-89.246 16.657l-163.817 63.125c-45.295 17.51-74.508 58.863-74.508 105.446v96.324h59.559v-96.324c0-23.275 14.621-43.998 37.254-52.723l163.814-63.125c43.123-16.657 90.679-16.627 133.858 0l163.849 63.155c22.63 8.781 37.252 29.444 37.252 52.723v94.647h59.558v-94.647c0-46.558-29.239-87.94-74.505-105.421l-163.849-63.155c-28.766-11.11-58.991-16.683-89.22-16.683zM502.579 433.263h59.558v-399.053h-59.558v399.053zM379.977 206.989c-13.818 0-27.546 3.072-40.262 9.212l-183.977 88.849c-21.888 10.573-37.909 28.736-45.116 51.132-7.177 22.451-4.527 46.071 7.445 66.564l56.998 97.318c22.245 37.861 70.547 53.635 112.447 37.036l273.286-109.028-100.774-193.647c-10.633-20.493-29.035-35.78-51.786-43.004-9.291-2.953-18.791-4.433-28.261-4.433zM253.057 506.85c-10.512 0-20.548-5.346-25.967-14.554l-56.998-97.289c-4.020-6.822-4.884-14.724-2.502-22.199 2.412-7.445 7.743-13.5 15.039-17.024l183.977-88.849c7.117-3.469 15.217-3.981 22.9-1.621 7.564 2.415 13.699 7.501 17.213 14.323l72.543 139.358-214.68 85.611c-3.752 1.506-7.683 2.244-11.525 2.244zM684.74 206.989c-9.472 0-18.999 1.451-28.262 4.378-22.75 7.249-41.156 22.511-51.814 43.034l-100.745 193.643 273.284 109.029c41.843 16.826 90.202 0.824 112.418-37.033l56.998-97.293c11.972-20.493 14.652-44.113 7.475-66.539-7.177-22.421-23.198-40.614-45.146-51.187l-183.979-88.849c-12.715-6.11-26.415-9.182-40.23-9.182zM585.515 419.025l72.482-139.358c3.575-6.822 9.707-11.908 17.271-14.323 7.625-2.419 15.723-1.852 22.874 1.617l183.974 88.849c7.296 3.524 12.659 9.579 15.040 17.054s1.519 15.347-2.5 22.17l-56.998 97.293c-7.386 12.617-23.526 17.963-37.436 12.335l-214.707-85.636zM297.071 599.166c-14.562 0-26.534 10.175-29.273 23.847-14.8 73.813-95.622 118.465-137.194 136.826-13.847 6.139-20.667 21.090-15.813 34.932 5.658 16.058 24.509 23.988 40.619 16.911 51.846-22.71 152.768-79.129 171.321-179.688 3.156-17.139-11.435-32.828-29.66-32.828zM776.192 599.166c-18.257 0-32.845 15.661-29.662 32.8 18.556 100.559 119.445 156.978 171.294 179.688 16.141 7.078 34.991-0.824 40.619-16.883 4.851-13.842-1.967-28.792-15.812-34.932-41.545-18.389-122.364-63.013-137.165-136.826-2.739-13.671-14.711-23.847-29.274-23.847z" />
<glyph unicode="&#xe945;" glyph-name="support-menu" horiz-adv-x="1067" d="M240 507.998v-219.998h466.667v219.998c-55.181 0-411.573 0-466.667 0zM373.333 354.667h-66.667v86.665h66.667v-86.665zM506.667 354.667h-66.667v86.665h66.667v-86.665zM640 441.331v-86.665h-66.667v86.665h66.667zM473.335 741.333c-98.607 0-187.017-62.502-219.997-155.529l62.835-22.276c23.567 66.475 86.723 111.138 157.162 111.138 70.434 0 133.589-44.663 157.158-111.138l62.835 22.276c-32.981 93.027-121.391 155.529-219.994 155.529zM893.333 488v-233.335c0-18.377-14.955-33.331-33.335-33.331h-19.998v286.665c0 202.647-163.994 366.669-366.665 366.669-202.652 0-366.669-163.997-366.669-366.669v-486.665h733.333v133.333h19.998c55.142 0 100.002 44.86 100.002 99.998v233.335h-66.667zM773.333 88h-600v419.998c0 165.422 134.58 300.002 300.002 300.002 165.419 0 299.998-134.58 299.998-300.002v-419.998zM240 221.333h466.667v-66.667h-466.667v66.667z" />
<glyph unicode="&#xe946;" glyph-name="user" d="M853.333 21.333h-75.853v179.307c-0.030 27.874-11.853 54.601-32.879 74.313s-49.532 30.797-79.266 30.827h-306.67c-29.734-0.030-58.241-11.115-79.267-30.827s-32.85-46.438-32.88-74.313v-179.307h-75.852v179.307c0.060 46.729 19.887 91.524 55.13 124.565s83.027 51.627 132.869 51.682h306.67c49.839-0.055 97.626-18.641 132.868-51.682s55.070-77.837 55.13-124.565v-179.307zM512 448c-45.005 0-89.002 12.51-126.423 35.955-37.421 23.441-66.588 56.757-83.811 95.739s-21.729 81.876-12.949 123.258c8.78 41.382 30.452 79.395 62.277 109.23s72.371 50.153 116.512 58.385c44.143 8.232 89.894 4.007 131.477-12.14 41.579-16.147 77.12-43.491 102.123-78.573s38.349-76.329 38.349-118.522c-0.060-56.562-24.051-110.792-66.714-150.788s-100.506-62.49-160.841-62.545zM512 803.555c-30.003 0-59.337-8.341-84.284-23.969s-44.39-37.839-55.872-63.827-14.487-54.584-8.633-82.172c5.854-27.589 20.302-52.93 41.518-72.82s48.246-33.437 77.673-38.924c29.431-5.487 59.934-2.671 87.654 8.094 27.716 10.764 51.409 28.993 68.079 52.382s25.57 50.886 25.57 79.014c0 37.719-15.983 73.894-44.433 100.566s-67.038 41.656-107.273 41.656z" />
<glyph unicode="&#xe947;" glyph-name="vip" d="M800 128h-576c-53.021 0-96 42.978-96 96v544l192-192 192 192 192-192 192 192v-544c0-53.022-42.978-96-96-96zM192 613.514v-389.514c0-17.673 14.326-32 32-32h576c17.673 0 32 14.327 32 32v389.514l-128-128.001-192 192.001-192-192.001-128 128.001z" />
<glyph unicode="&#xe948;" glyph-name="wallet" d="M864 704h-640c-8.487 0-16.626 3.372-22.627 9.373s-9.373 14.14-9.373 22.627c0 8.487 3.372 16.626 9.373 22.627s14.14 9.373 22.627 9.373h544c8.489 0 16.625 3.372 22.625 9.373 6.006 6.001 9.375 14.14 9.375 22.627s-3.369 16.626-9.375 22.627c-6.001 6.001-14.136 9.373-22.625 9.373h-544c-25.461 0-49.879-10.114-67.882-28.118s-28.118-42.422-28.118-67.882v-512c0-25.462 10.114-49.879 28.118-67.881 18.004-18.007 42.422-28.119 67.882-28.119h640c16.973 0 33.254 6.743 45.256 18.744s18.744 28.283 18.744 45.256v448c0 16.974-6.743 33.252-18.744 45.255s-28.283 18.745-45.256 18.745zM864 192h-640c-8.487 0-16.626 3.369-22.627 9.375-6.001 6.001-9.373 14.136-9.373 22.625v421.48c10.275-3.642 21.098-5.496 32-5.48h640v-448zM672 432c0 9.492 2.816 18.774 8.090 26.668s12.769 14.046 21.54 17.679c8.771 3.633 18.422 4.583 27.735 2.732s17.864-6.424 24.576-13.137c6.712-6.713 11.284-15.266 13.138-24.577 1.853-9.313 0.901-18.964-2.734-27.735-3.63-8.771-9.784-16.266-17.679-21.54-7.89-5.274-17.172-8.090-26.665-8.090-12.728 0-24.94 5.059-33.94 14.060s-14.060 21.212-14.060 33.94z" />
<glyph unicode="&#xe949;" glyph-name="x" d="M853.333 733.434l-55.898 55.899-285.436-285.436-285.434 285.436-55.899-55.899 285.436-285.434-285.436-285.436 55.899-55.898 285.434 285.436 285.436-285.436 55.898 55.898-285.436 285.436 285.436 285.434z" />
<glyph unicode="&#xe94a;" glyph-name="casino-menu" d="M512 864c-82.278 0-162.706-24.398-231.117-70.109s-121.731-110.681-153.216-186.695c-31.486-76.013-39.724-159.657-23.673-240.352s55.671-154.82 113.85-213.001c58.179-58.18 132.303-97.801 213-113.852 80.695-16.051 164.339-7.812 240.354 23.676 76.011 31.484 140.983 84.804 186.692 153.216 45.713 68.412 70.11 148.838 70.11 231.117-0.115 110.294-43.981 216.038-121.971 294.028s-183.735 121.856-294.029 121.972zM512 256c-37.973 0-75.093 11.26-106.669 32.358-31.574 21.099-56.183 51.085-70.715 86.165-14.532 35.085-18.334 73.69-10.926 110.933s25.695 71.456 52.546 98.307c26.852 26.852 61.064 45.138 98.307 52.546s75.849 3.606 110.933-10.926c35.081-14.532 65.071-39.141 86.165-70.715 21.099-31.576 32.358-68.696 32.358-106.67-0.051-50.906-20.297-99.712-56.294-135.706-35.994-35.998-84.8-56.243-135.706-56.294zM668.838 650.12c-36.164 28.269-79.3 46.236-124.838 52v96.4c71.014-6.397 138.385-34.306 193.122-80l-68.284-68.4zM480 701.92c-45.538-5.764-88.674-23.731-124.84-52l-68.28 68.48c54.735 45.694 122.107 73.603 193.12 80v-96.48zM309.88 604.84c-28.269-36.166-46.236-79.302-52-124.84h-96.4c6.397 71.014 34.306 138.385 80 193.12l68.4-68.28zM258.080 416c5.764-45.538 23.732-88.674 52-124.838l-68.48-68.279c-45.694 54.733-73.603 122.103-80 193.118h96.48zM355.16 245.879c36.187-28.198 79.319-46.093 124.84-51.802v-96.597c-71.013 6.396-138.385 34.304-193.12 80l68.28 68.399zM544 194.078c45.521 5.709 88.653 23.603 124.838 51.802l68.284-68.279c-54.737-45.696-122.108-73.604-193.122-80v96.478zM714.121 291.162c28.198 36.186 46.093 79.317 51.802 124.838h96.597c-6.396-71.014-34.304-138.385-80-193.118l-68.399 68.279zM765.922 480c-5.709 45.521-23.603 88.652-51.802 124.84l68.279 68.28c45.696-54.735 73.604-122.106 80-193.12h-96.478z" />
<glyph unicode="&#xe94b;" glyph-name="soccer" d="M512 874.667c-235.253 0-426.667-191.413-426.667-426.667 0-235.251 191.413-426.667 426.667-426.667 235.251 0 426.667 191.415 426.667 426.667s-191.415 426.667-426.667 426.667zM539.093 736.053l109.705 58.987c60.749-24.053 113.762-63.467 154.082-113.6l-26.133-120.64-83.678-41.013-153.975 112.16v104.107zM376.107 795.36l109.705-59.2v-104.213l-153.865-112.16-84.107 41.067-26.133 121.387c40.427 50.027 93.547 89.227 154.4 113.12zM204.267 237.12c-34.827 50.667-57.493 110.238-63.733 174.613l90.293 98.078 82.347-40.265 62.027-176.158-52.427-62.827-118.507 6.558zM607.091 87.415c-30.451-8.055-62.187-12.749-95.091-12.749-39.787 0-78.080 6.4-114.080 17.975l-33.547 104.427 53.493 64.265h188.478l52.535-62.187-51.789-111.731zM700.48 232.371l-51.575 61.069 62.882 176.107 81.971 40.162 89.762-98.027c-5.389-55.522-23.253-107.307-50.402-153.122l-132.638-26.189z" />
<glyph unicode="&#xe94c;" glyph-name="tips" d="M735.317 483.132c0 56.919-25.417 110.389-68.992 150.060-43.575 37.946-101.675 58.644-163.405 55.194-116.197-5.174-208.793-93.14-212.424-200.079-1.815-50.022 16.34-100.041 52.652-137.988 39.943-44.843 56.284-79.339 56.284-125.909v-18.974c0-6.899 3.631-13.798 9.078-18.974s12.709-8.623 19.974-8.623h170.667c16.337 0 29.047 12.075 29.047 27.597v18.974c0 51.742 21.786 87.966 58.099 127.637 30.865 36.22 49.020 82.79 49.020 131.085zM441.19 117.47h141.619v-53.47h-141.619v53.47zM482.948 874.667h58.103v-110.388h-58.103v110.388zM85.333 512.452h119.83v-53.47h-119.83v53.47zM818.837 512.452h119.829v-53.47h-119.829v53.47zM190.639 224.41l39.943-37.948 85.333 77.619-41.759 37.943-83.517-77.615zM833.361 747.030l-39.945 37.946-85.333-79.342 41.762-37.946 83.516 79.342zM315.915 705.634l-85.333 77.617-41.759-36.221 85.333-79.342 41.759 37.946zM708.083 265.805l85.333-79.343 41.762 37.948-85.333 77.615-41.762-36.22z" />
<glyph unicode="&#xe94d;" glyph-name="icon-caret-right" horiz-adv-x="1067" d="M747.972 425.361l-320-320c-2.973-2.974-6.502-5.333-10.387-6.942s-8.048-2.436-12.253-2.436c-4.205 0-8.368 0.828-12.253 2.436s-7.414 3.968-10.388 6.942c-2.973 2.974-5.331 6.502-6.941 10.385-1.609 3.887-2.437 8.047-2.437 12.254 0 4.203 0.828 8.367 2.437 12.254 1.609 3.883 3.968 7.411 6.941 10.385l297.401 297.361-297.401 297.36c-6.004 6.004-9.378 14.148-9.378 22.64s3.373 16.636 9.378 22.64c6.004 6.004 14.149 9.378 22.64 9.378s16.635-3.373 22.639-9.378l320-320.001c2.974-2.97 5.338-6.502 6.946-10.385 1.613-3.883 2.441-8.047 2.441-12.254s-0.828-8.371-2.441-12.254c-1.609-3.887-3.972-7.415-6.946-10.385z" />
<glyph unicode="&#xe94e;" glyph-name="clock-white" d="M511.99 917.33c-258.766 0-469.325-210.537-469.325-469.333 0-258.798 210.558-469.333 469.325-469.333 258.819 0 469.339 210.534 469.339 469.333 0 258.796-210.52 469.333-469.339 469.333zM511.99 41.238c-224.284 0-406.749 182.462-406.749 406.759s182.483 406.759 406.749 406.759c224.317 0 406.765-182.463 406.765-406.759s-182.433-406.759-406.765-406.759zM736.344 472.093h-203.684v283.839c0 18.445-14.189 33.399-31.674 33.399-17.467 0-31.655-14.972-31.655-33.399v-350.601h267.013c17.481 0 31.671 14.936 31.656 33.381 0 18.427-14.212 33.381-31.656 33.381z" />
<glyph unicode="&#xe94f;" glyph-name="game-hot" d="M511.983 21.367c-188.202 0-341.316 159.356-341.316 355.23 0 119.287 51.368 193.921 128.506 269.266l83.554 81.667-27.032-115.911c-9.386-40.354-11.843-163.619 37.955-229.513 20.854-27.601 48.399-41.028 84.201-41.028 37.786 0 67.789 31.403 68.267 71.505 0.478 39.68-15.633 72.538-32.7 107.281-17.476 35.593-35.567 72.36-35.567 117.048 0 96.303 48.196 183.583 50.244 187.242l28.258 50.513 30.071-49.413c28.979-47.565 68.058-91.898 105.911-134.774 79.151-89.66 160.998-182.448 160.998-313.917 0-195.874-153.114-355.23-341.316-355.23l-0.034 0.034zM238.93 376.597c0-156.689 122.499-284.181 273.053-284.181s273.054 127.492 273.054 284.181c0 103.799-69.457 182.554-143.014 265.856-26.278 29.804-53.175 60.247-77.683 92.751-9.421-27.459-18.223-62.627-18.223-98.363 0-27.566 13.001-54.031 28.053-84.722 19.183-39.004 40.892-83.194 40.209-140.495-0.922-78.076-62.187-141.628-136.529-141.628-56.486 0-104.168 23.586-137.89 68.169-39.115 51.755-53.553 123.511-56.795 184.222-28.568-41.455-44.235-86.144-44.235-145.788z" />
<glyph unicode="&#xe950;" glyph-name="about-us" d="M815.484 420.774h-65.993c6.729-17.37 10.402-36.113 10.402-55.65v-235.221c0-8.145-1.502-15.962-4.237-23.232h109.099c40.755 0 73.911 31.27 73.911 69.705v128.226c0 64.060-55.258 116.173-123.183 116.173zM264.109 365.124c0 19.537 3.675 38.281 10.402 55.65h-65.994c-67.923 0-123.183-52.117-123.183-116.173v-128.23c0-38.434 33.155-69.705 73.91-69.705h109.103c-2.735 7.275-4.238 15.091-4.238 23.236v235.221zM587.435 481.297h-150.869c-67.923 0-123.183-52.113-123.183-116.173v-235.221c0-12.83 11.030-23.236 24.637-23.236h347.963c13.606 0 24.636 10.402 24.636 23.236v235.221c0 64.060-55.258 116.173-123.183 116.173zM512 789.333c-81.685 0-148.143-62.674-148.143-139.714 0-52.255 30.582-97.893 75.746-121.854 21.423-11.362 46.118-17.856 72.397-17.856 26.283 0 50.978 6.494 72.401 17.856 45.163 23.962 75.742 69.601 75.742 121.854 0 77.038-66.453 139.714-148.143 139.714zM251.863 659.11c-61.091 0-110.792-46.871-110.792-104.486 0-57.613 49.7-104.486 110.792-104.486 15.497 0 30.254 3.029 43.659 8.469 23.177 9.408 42.287 26.069 54.112 46.933 8.3 14.643 13.022 31.352 13.022 49.084 0 57.613-49.7 104.486-110.792 104.486zM772.139 659.11c-61.094 0-110.793-46.871-110.793-104.486 0-17.733 4.723-34.441 13.022-49.084 11.823-20.868 30.933-37.525 54.11-46.933 13.406-5.44 28.164-8.469 43.661-8.469 61.090 0 110.793 46.874 110.793 104.486 0 57.615-49.702 104.486-110.793 104.486z" />
<glyph unicode="&#xe951;" glyph-name="promotion-menu" d="M462.281 400.828c-73.155 0-288.46 0-288.46 0-22.856 0-41.558-17.963-41.558-39.919v-299.652c0-21.961 18.702-39.923 41.558-39.923 0 0 219.81 0 293.311 0 9.775 0 9.775 10.091 9.775 10.091v355.84c0 0-0.004 13.564-14.626 13.564zM850.18 400.828c0 0-216.128 0-288.166 0-17.549 0-14.921-17.557-14.921-17.557v-352.171c0 0-0.145-9.758 10.415-9.758 73.165 0 292.668 0 292.668 0 22.857 0 41.557 17.963 41.557 39.923v299.644c0.009 21.956-18.697 39.919-41.553 39.919zM476.902 636.602c0 0 0 13.528-13.914 13.528-83.325 0-336.097 0-336.097 0-22.856 0-41.558-17.967-41.558-39.921v-124.624c0-21.956 18.702-39.919 41.558-39.919 0 0 253.905 0 337.236 0 12.774 0 12.774 10.645 12.774 10.645v180.291zM897.109 650.13c0 0-252.877 0-337.169 0-12.843 0-12.843-11.754-12.843-11.754v-182.313c0 0 0-10.398 15.612-10.398 83.597 0 334.4 0 334.4 0 22.857 0 41.557 17.963 41.557 39.919v124.624c0 21.955-18.701 39.921-41.557 39.921zM335.557 679.668c-19.014 0-36.381 1.449-51.61 4.308-38.682 7.26-65.268 21.391-81.278 43.194-14.345 19.54-18.735 43.63-13.052 71.603 9.955 48.941 44.168 75.893 96.329 75.893 11.039 0 23.162-1.225 36.035-3.642 32.748-6.146 74.633-24.186 112.046-48.255 63.475-40.841 66.615-66.231 63.454-81.778-4.646-22.845-26.876-39.168-67.951-49.907-27.751-7.254-62.004-11.417-93.973-11.417zM285.948 810.679c-20.201 0-27.143-5.422-30.955-24.174-3.119-15.332 0.815-20.687 2.104-22.447 5.401-7.359 19.471-13.496 39.62-17.275 10.872-2.042 24.306-3.121 38.836-3.121 31.951 0 60.1 4.651 78.778 9.739 1.359 0.369 3.47 1.914 1.208 3.208-24.418 19.11-69.092 44.628-106.329 51.618-8.675 1.623-16.504 2.452-23.262 2.452zM689.408 679.668c-31.97 0-66.227 4.163-93.978 11.417-41.079 10.736-63.305 27.063-67.951 49.904-3.157 15.547-0.026 40.937 63.458 81.778 37.406 24.070 79.292 42.109 112.043 48.255 12.877 2.417 24.998 3.642 36.028 3.642 52.173 0 86.383-26.955 96.329-75.896 5.692-27.97 1.301-52.060-13.043-71.6-16.013-21.807-42.594-35.934-81.289-43.194-15.219-2.854-32.589-4.305-51.597-4.305zM609.954 757.004c-2.167-1.207-1.118-3.112 0.004-3.424 18.671-5.157 47.117-9.921 79.441-9.921 14.537 0 27.964 1.079 38.839 3.121 20.147 3.781 34.223 9.915 39.62 17.274 1.297 1.76 5.231 7.115 2.103 22.447-3.806 18.752-10.752 24.174-30.959 24.174-6.754 0-14.575-0.826-23.258-2.455-37.239-6.987-81.374-32.103-105.792-51.216z" />
<glyph unicode="&#xe952;" glyph-name="provision" d="M912.213 558.681c-31.074 26.127-78.622 23.015-105.604-9.156l-16.213-19.183 114.923-96.431 15.484 19.115c26.628 31.671 23.262 78.972-8.589 105.655zM587.635 290.441l-8.55-10.121c-7.424-8.892-12.77-19.511-15.458-30.767l-23.245-97.28c-2.197-9.203 1.003-18.876 8.252-24.956 7.061-5.931 17.015-7.654 26.010-3.81l91.785 39.804c10.62 4.612 20.143 11.716 27.567 20.531l8.58 10.155-114.94 96.444zM758.131 492.164l-138.227-163.546 114.935-96.444 138.214 163.558-114.923 96.431zM712.064 763.893l-94.985 90.249c-8.981 8.513-20.028 13.527-31.671 16.784v-146.198h148.442c-3.102 14.852-10.667 28.611-21.786 39.165zM514.987 261.175c4.471 18.701 13.38 36.407 25.737 51.204l194.705 230.389v131.951h-175.023c-13.82 0-25.007 11.183-25.007 25.004v175.026h-375.054c-41.363 0-75.011-33.648-75.011-75.011v-703.436c0-41.365 33.648-75.012 75.011-75.012h500.076c41.361 0 75.008 33.647 75.008 75.012v59.106l-3.247-3.844c-12.279-14.626-28.126-26.419-45.781-34.112l-91.861-39.825c-25.89-11.183-55.859-7.219-78.037 11.354-21.901 18.385-31.398 47.078-24.759 74.914l23.245 97.28zM210.352 724.728h250.039c13.82 0 25.003-11.183 25.003-25.004s-11.183-25.004-25.003-25.004h-250.039c-13.82 0-25.004 11.183-25.004 25.004s11.183 25.004 25.004 25.004zM210.352 573.039h400.059c13.82 0 25.003-11.183 25.003-25.004s-11.183-25.005-25.003-25.005h-400.059c-13.82 0-25.004 11.185-25.004 25.005s11.183 25.004 25.004 25.004zM410.382 222.985h-200.030c-13.82 0-25.004 11.187-25.004 25.007s11.183 25.003 25.004 25.003h200.030c13.821 0 25.002-11.183 25.002-25.003s-11.181-25.007-25.002-25.007zM210.352 373.009c-13.82 0-25.004 11.183-25.004 25.003s11.183 25.003 25.004 25.003h300.044c13.82 0 25.003-11.183 25.003-25.003s-11.183-25.003-25.003-25.003h-300.044z" />
</font>
</defs>
</svg>
